img image001 image001 image001 image001 image001 image001 image001 image001 image001 image001 image001 image001 image001 image001 image001

Planets Sun Sun Sun
Статистика раздачи
Автор: PriZraK | Размер: 631.2 МБ | Добавлен: 15 июл 2016
Раздают: 73    Качают: 10
Скачать торрент
Скачать торрент
Описание торрента

СообщениеДобавлено: 15 июл 2016 

Информация о фильме
Название: Жила-была царевна
Год выхода: 2013
Жанр: Мультсериал, рисованный, детский, обучающий, познавательный
Страна: Россия, ТеремокТВ
Продолжительность: 6 х ~ 00:06:10, 10 х ~ 00:03:00
Перевод: не требуется
Режиссер: Артур Днепровский
Озвучивали: Алёна Созинова, Василий Шемякинский,

О фильме:
Жила-была царевна – новый многосерийный мультфильм про маленькую обаятельную и непоседливую девчушку. В каждой серии – поучительная история из ее жизни. Она хоть и царевна, желания у нее совершенно обыкновенные, как и у любого ребенка – побольше сладостей и поменьше нравоучений!

01. Не буду спать!
02. Хочу подарков!
03. Жадина!
04. Волшебные сказки
05. Замарашка
06. Про еду

Бонусы (песенки):
001. Новогодняя песенка
002. Новогодняя песенка (караоке)
003. Песенка про ночь
004. Песенка про ночь (караоке)
005. Песенка про подарки
006. Песенка про подарки (караоке)
007. Песенка про буквы
008. Песенка про буквы (караоке)
009. Песенка про жадину
010. Песенка замарашки


Доп. информация:
Официальный сайт / Семпл

Файл
Формат: AVI
Качество: WEB-DL 1080p
Видео: 720x400 (1.80:1), 25 fps, XviD build 65 ~1399 kbps avg, 0.19 bit/pixel
Звук: 48 kHz, AC3 Dolby Digital, 2/0 (L,R) ch, ~192.00 kbps avg
Субтитры: нет

04. Волшебные сказки. XviD.-merci-.avi
Format : AVI
Format/Info : Audio Video Interleave
File size : 66.8 MiB
Duration : 5mn 49s
Overall bit rate : 1 602 Kbps
Writing application : VirtualDubMod 1.5.10.3 (build 2550/release)
Writing library : VirtualDubMod build 2550/release

Video
ID : 0
Format : MPEG-4 Visual
Format profile : Advanced Simple@L5
Format settings, BVOP : 1
Format settings, QPel : No
Format settings, GMC : No warppoints
Format settings, Matrix : Default (MPEG)
Codec ID : XVID
Codec ID/Hint : XviD
Duration : 5mn 49s
Bit rate : 1 400 Kbps
Width : 720 pixels
Height : 400 pixels
Display aspect ratio : 16:9
Frame rate : 25.000 fps
Color space : YUV
Chroma subsampling : 4:2:0
Bit depth : 8 bits
Scan type : Progressive
Compression mode : Lossy
Bits/(Pixel*Frame) : 0.194
Stream size : 58.4 MiB (87%)
Writing library : XviD 65

Audio
ID : 1
Format : AC-3
Format/Info : Audio Coding 3
Mode extension : CM (complete main)
Format settings, Endianness : Big
Codec ID : 2000
Duration : 5mn 49s
Bit rate mode : Constant
Bit rate : 192 Kbps
Channel(s) : 2 channels
Channel positions : Front: L R
Sampling rate : 48.0 KHz
Compression mode : Lossy
Stream size : 8.00 MiB (12%)
Alignment : Split accross interleaves
Interleave, duration : 40 ms (1.00 video frame)
Interleave, preload duratio : 500 ms



Добавил эпизод:
+ 06 - 14.06.2016


Релиз от:
Автор релиза:



   Похожие торренты   Торрент   Размер 
В этой теме нет новых непрочитанных сообщений. Жила-была царевна [01x01-06 + 10 бонусов] (2013-2016) WEB-DL 720p от ExKinoRay

26 | 9

1.24 ГБ

В этой теме нет новых непрочитанных сообщений. Жила-была царевна [01x01-06 + 10 бонусов] (2013-2016) WEB-DL 1080p от ExKinoRay

114 | 24

1.63 ГБ

В этой теме нет новых непрочитанных сообщений. Жила-была царевна (01x01-05 + Бонусы) (2013) WEB-DLRip от -merci-

130 | 14

528.3 МБ

В этой теме нет новых непрочитанных сообщений. Жила-была царевна (01x01-05 + Бонусы) (2013) WEB-DL 720p от -merci-

260 | 14

1.04 ГБ

В этой теме нет новых непрочитанных сообщений. Жила-была царевна (01x01-05 + Бонусы) (2013) WEB-DL 1080p от -merci-

579 | 18

1.37 ГБ

В этой теме нет новых непрочитанных сообщений. Жила-была... / C'era una volta (1967) DVDRip от ExKinoRay | P

78 | 12

1.46 ГБ

В этой теме нет новых непрочитанных сообщений. Жила-была одна баба (2011) BDRip от ExKinoRay

15 | 6

2.35 ГБ




Вы не можете начинать темы
Вы не можете отвечать на сообщения
Вы не можете редактировать свои сообщения
Вы не можете удалять свои сообщения
Вы не можете добавлять вложения

Перейти:  
Для Мосгорсуда, Роскомнадзора и рекламодателей: mosgorsud-torrent[собачка]yandex.ru
 Вход
ppkBB3cker v.2 © 2008-2014 @ PPK
[ Time : 20.112s | 14 Queries | GZIP : Off ]
CGP output time : 0.050s | 5 Queries | GZIP : Off

Торрент трекер RUTOR.IN, Не можете зайти на rutor.org? Какой новый адрес рутор? Какое зеркало рутор? Не работает rutor.org и зеркала? Тогда наш торрент специально для вас. Rutor.in неофициальное зеркало rutor. В случае если у Вас заблокирован rutor или вдруг Вы не можете на него зайти, то Вы без труда сможете скачать бесплатно и без рекламы последние новинки кино, игр, сериалов и прочего у нас, на Rutor.in. Не нужно использовать прокси, чтобы зайти на рутор, достаточно воспользоваться нашим ресурсом. Все новые фильмы, игры, сериалы, книги и музыка за 2013 и 2014 годы через торрент бесплатно. Скачивайте фильмы в хорошем качестве, игры для пк, xbox, playstation без регистрации. У нас вы найдете новые Зарубежные сериалы и Русские сериалы 2013, 2014, 2015 годов. Оставайтесь с нами, качайте любимые фильмы, игры, сериалы, книги и музыку.