img image001 image001 image001 image001 image001 image001 image001 image001 image001 image001 image001 image001 image001 image001 image001

Planets Sun Sun Sun
Статистика раздачи
Автор: PriZraK | Размер: 23.03 ГБ | Добавлен: 15 июл 2016
Раздают: 39    Качают: 30
Скачать торрент
Скачать торрент
Описание торрента

СообщениеДобавлено: 15 июл 2016 

Информация о фильме
Название: Лунтик и его друзья
Год выпуска: 2006-2016
Страна: Россия, студия Мельница
Жанр: мультфильм, детский, комедия, приключения, семейный
Продолжительность: 460 х ~ 00:04:57
Перевод: Не требуется
Русские субтитры: нет

Режиссёры: Дарина Шмидт, Екатерина Салабай, Екатерина Шрага

Роли озвучивали: Михаил Черняк, Екатерина Гороховская, Елена Шульман, Наталья Данилова, Юлия Рудина, Елена Соловьева, Анатолий Петров, Олег Куликович, Константин Бронзит, Светлана Письмиченко

Описание: Лунтик — главный герой мультфильма, загадочный малыш, родившийся на Луне и попавший на Землю. На Земле Лунтик нашел друзей: кузнечика Кузю, божью коровку Милу и Пчелёнка. От природы добрый и общительный, лунный малыш становится всеобщем любимцем обитателей поляны, на которой он волею судеб оказался. Особенно тепло к Лунтику относятся пожилые бездетные супруги шершни, которые стали его опекунами и называют своим внуком.



Доп. информация: Это WEB-версия, широкоформатная (16:9), выходные титры всего 8 секунд.

Семпл / Список серий (460) / Приключения Лунтика и его друзей
ЗЫ: В версии с DVD (4:3) выходные титры были 55 секунд.


Файл:
Формат: MP4
Качество: WEBRip 720p (wide)
Видео: Mpeg4-AVC, High@L3.1, 1280x720 (16:9), 25 fps, ~1 687 Kbps
Аудио: 44.1 kHz, AAC-LC, 2/0 (L,R) ch, ~192.00 kbps
Субтитры: отсутствуют

323. Настоящая команда. HD-merci-.mp4
Format : MPEG-4
Format profile : Base Media / Version 2
Codec ID : mp42 (isom/mp42)
File size : 66.1 MiB
Duration : 4mn 54s
Overall bit rate mode : Variable
Overall bit rate : 1 881 Kbps
Encoded date : UTC 2016-01-05 16:16:35
Tagged date : UTC 2016-01-05 16:16:35
gsst : 0
gstd : 295031

Video
ID : 1
Format : AVC
Format/Info : Advanced Video Codec
Format profile : High@L3.1
Format settings, CABAC : Yes
Format settings, ReFrames : 1 frame
Codec ID : avc1
Codec ID/Info : Advanced Video Coding
Duration : 4mn 54s
Bit rate : 1 687 Kbps
Maximum bit rate : 6 663 Kbps
Width : 1 280 pixels
Height : 720 pixels
Display aspect ratio : 16:9
Frame rate mode : Constant
Frame rate : 25.000 fps
Color space : YUV
Chroma subsampling : 4:2:0
Bit depth : 8 bits
Scan type : Progressive
Bits/(Pixel*Frame) : 0.073
Stream size : 59.3 MiB (90%)
Tagged date : UTC 2016-01-05 16:16:37

Audio
ID : 2
Format : AAC
Format/Info : Advanced Audio Codec
Format profile : LC
Codec ID : 40
Duration : 4mn 54s
Bit rate mode : Variable
Bit rate : 192 Kbps
Maximum bit rate : 202 Kbps
Channel(s) : 2 channels
Channel positions : Front: L R
Sampling rate : 44.1 KHz
Frame rate : 43.066 fps (1024 spf)
Compression mode : Lossy
Stream size : 6.75 MiB (10%)
Title : IsoMedia File Produced by Google, 5-11-2011
Language : English
Encoded date : UTC 2016-01-05 16:16:36
Tagged date : UTC 2016-01-05 16:16:37



Добавил эпизоды:
+ 455 - 11.04.2016
+ 453 - 25.04.2016
+ 457 - 16.05.2016
+ 458 - 24.05.2016
+ 461 - 09.06.2016
+ 459 - 08.07.2016


Релиз от:
Автор релиза:



   Похожие торренты   Торрент   Размер 
В этой теме нет новых непрочитанных сообщений. Лунтик и его друзья [01-08x1-459, 461 из 479] (2006-2016) WEBRip от ExKinoRay

162 | 91

15.5 ГБ

В этой теме нет новых непрочитанных сообщений. Лунтик и его друзья [01-08x1-459, 461 из 479] (2006-2016) WEBRip 1080p от ExKinoRay

13 | 18

40.78 ГБ

В этой теме нет новых непрочитанных сообщений. Лунтик и его друзья [01-08x1-473,478-479 из 479+485] (2006-2016) WEB-DLRip 720p от ExKinoRay

38 | 30

23.77 ГБ

В этой теме нет новых непрочитанных сообщений. Лунтик и его друзья [01-08x1-473,478-479 из 479+485] (2006-2016) WEB-DLRip от ExKinoRay

52 | 50

16.02 ГБ

В этой теме нет новых непрочитанных сообщений. Лунтик и его друзья [01-08x1-473,478-479 из 479+485] (2006-2016) WEB-DLRip 1080p от ExKinoRay

11 | 10

42.07 ГБ

В этой теме нет новых непрочитанных сообщений. Лунтик и его друзья [01-08x1-453 из ?] (2006-2015) WEB-DLRip 720p от -merci-

153 | 131

22.69 ГБ

В этой теме нет новых непрочитанных сообщений. Лунтик и его друзья [01-08x1-454 из ?] (2006-2015) WEB-DLRip 720p от -merci-

125 | 111

22.75 ГБ




Вы не можете начинать темы
Вы не можете отвечать на сообщения
Вы не можете редактировать свои сообщения
Вы не можете удалять свои сообщения
Вы не можете добавлять вложения

Перейти:  
Для Мосгорсуда, Роскомнадзора и рекламодателей: mosgorsud-torrent[собачка]yandex.ru
 Вход
ppkBB3cker v.2 © 2008-2014 @ PPK
[ Time : 0.048s | 14 Queries | GZIP : Off ]
CGP output time : 0.012s | 5 Queries | GZIP : Off

Торрент трекер RUTOR.IN, Не можете зайти на rutor.org? Какой новый адрес рутор? Какое зеркало рутор? Не работает rutor.org и зеркала? Тогда наш торрент специально для вас. Rutor.in неофициальное зеркало rutor. В случае если у Вас заблокирован rutor или вдруг Вы не можете на него зайти, то Вы без труда сможете скачать бесплатно и без рекламы последние новинки кино, игр, сериалов и прочего у нас, на Rutor.in. Не нужно использовать прокси, чтобы зайти на рутор, достаточно воспользоваться нашим ресурсом. Все новые фильмы, игры, сериалы, книги и музыка за 2013 и 2014 годы через торрент бесплатно. Скачивайте фильмы в хорошем качестве, игры для пк, xbox, playstation без регистрации. У нас вы найдете новые Зарубежные сериалы и Русские сериалы 2013, 2014, 2015 годов. Оставайтесь с нами, качайте любимые фильмы, игры, сериалы, книги и музыку.