img image001 image001 image001 image001 image001 image001 image001 image001 image001 image001 image001 image001 image001 image001 image001

Planets Sun Sun Sun
Статистика раздачи
Автор: PriZraK | Размер: 3.88 ГБ | Добавлен: 15 июл 2016
Раздают: 6    Качают: 5
Скачать торрент
Скачать торрент
Описание торрента

СообщениеДобавлено: 15 июл 2016 

Слоган: «Когда закрывается дверь холодильника - начинается отрыв и веселье!»


Информация о фильме
Название: Овощная вечеринка
Оригинальное название: The Beet Party
Год выхода: 2012-2013
Страна: Канада, Корея Южная
Жанр: Мультсериал, семейный, комедия, приключения
Продолжительность: 82 х ~ 00:02:30
Перевод: не требуется

Режиссер: Пол Хант, Чжон У Кён

Роли озвучивали: Джули Лемье, Роберт Тинклер

О фильме: Пятеро крутых свёкл, скучая, прохлаждаются в холодильнике. Но всякий раз, лишь только дай повод, они готовы к головокружительным экспериментам, сумасшедшим играм, искрометному веселью и новым ритмам в стиле бит.
01. Большой Арбуз
02. Когда Поднимется Тесто
03. Футбольный Кубок
04. Австралийская Вечеринка
05. Река Слез
06. Холодильник Юрского Периода
07. Ночь в Опере
08. Хэллоуин
09. Мексиканская фиеста
10. Вечер поэзии
11. Крепкая дружба
12. ДиДжей Пицца
13. Морковный поединок
14. Конфеты в золотых фантиках
15. Авокадо
16. Китайская капуста
17. Суши
18. Вишенка
19. Сырная пирамида
20. Разноцветные бобы
21. Чеснок
22. Небоскреб
23. Скоро Новый Год!
24. Замок из песка
25. Зимняя рыбалка
26. Фристайл
27. Кёрлинг
28. Шоколадный Санта Клаус
29. Снеговик
30. Весна пришла
31. Снежный монстр
32. НЛО
33. Санный спорт
34. Снежная битва
35. Метель
36. Сохраняйте спокойствие
37. Конкурс двойников
38. Улитки Эс-Кар-Гo!
39. Трехэтажный сэндвич
40. Йогурт
41. Коктейль из креветок
42. Спортивная гимнастика
43. Падение с Олимпа
44. Рулет с начинкой
45. Оставленные
46. Картофель фри
47. Фрикадельки
48. Кубики льда
49. Театр теней
50. Позвони мне!
51. Горький перец
52. Поп-корн
53. Кемпинг
54. Унесенные ветром
55. В ловушке
56. Отпуск у воды
57. Пенная вечеринка
58. Творческая личность
59. Танцы под дождем
60. Прятки
61. Индийское кино
62. Зефир
63. Гавайская вечеринка
64. Вечеринка в спальных мешках
65. Торт на день рождения
66. Кубики желе
67. Колбаски на завтрак
68. Формочки для печенья
69. Скорлупа
70. Мастера Кунг Фу
71. Устрицы
72. Пряничный домик
73. Лазерное шоу
74. Посудомоечная машина
75. Смарт ТВ
76. Кондиционер
77. Робот пылесос
78. Пираты
79. Корм для животных
80. Коробка с пончиками
81. Холодная индейка
82. Пещерный обитатель



Доп. информация:
Семпл



Файл
Формат: MP4
Качество: WEB-DLRip 1080p
Видео: MPEG4-AVC, High@L4, 1920x1080 (16:9), ~ 3 347 Kbps, 25.000 fps
Звук: 44.1 KHz, AAC-LC 2.0, 192 Kbps
Субтитры: нет

39. Трехэтажный сэндвич. Full-HD-merci-.mp4
Формат : MPEG-4
Профиль формата : Base Media
Идентификатор кодека : isom (isom)
Размер файла : 63,4 Мбайт
Продолжительность : 2 м. 30 с.
Режим общего битрейта : Переменный
Общий поток : 3541 Кбит/сек
Дата кодирования : UTC 2016-07-11 12:58:22
Дата пометки : UTC 2016-07-11 12:58:22
Программа кодирования : My MP4Box GUI 0.6.0.6

Видео
Идентификатор : 1
Формат : AVC
Формат/Информация : Advanced Video Codec
Профиль формата : High@L4
Параметр CABAC формата : Да
Параметр ReFrames формата : 2 кадра
Идентификатор кодека : avc1
Идентификатор кодека/Информация : Advanced Video Coding
Продолжительность : 2 м. 30 с.
Битрейт : 3347 Кбит/сек
Максимальный битрейт : 6163 Кбит/сек
Ширина : 1920 пикселей
Высота : 1080 пикселей
Соотношение сторон : 16:9
Режим частоты кадров : Постоянный
Частота кадров : 25,000 кадров/сек
Цветовое пространство : YUV
Субдискретизация насыщенности : 4:2:0
Битовая глубина : 8 бит
Тип развёртки : Прогрессивная
Бит/(Пиксели*Кадры) : 0.065
Размер потока : 59,9 Мбайт (94%)
Заголовок : 39-1080.mp4
Дата кодирования : UTC 2016-04-08 07:40:58
Дата пометки : UTC 2016-07-11 12:58:23

Аудио
Идентификатор : 2
Формат : AAC
Формат/Информация : Advanced Audio Codec
Профиль формата : LC
Идентификатор кодека : 40
Продолжительность : 2 м. 30 с.
Вид битрейта : Переменный
Битрейт : 192 Кбит/сек
Максимальный битрейт : 213 Кбит/сек
Каналы : 2 канала
Расположение каналов : Front: L R
Частота : 44,1 КГц
Частота кадров : 43,066 кадра/сек (1024 spf)
Метод сжатия : С потерями
Размер потока : 3,43 Мбайт (5%)
Заголовок : 39-ru.m4a
Дата кодирования : UTC 2016-07-11 12:58:23
Дата пометки : UTC 2016-07-11 12:58:23



Релиз от:
Автор релиза:



   Похожие торренты   Торрент   Размер 
В этой теме нет новых непрочитанных сообщений. Овощная вечеринка / The Beet Party [1-82 из ?] (2012-2013) WEB-DLRip 1080p от ExKinoRay

7 | 5

4.02 ГБ

В этой теме нет новых непрочитанных сообщений. Овощная вечеринка / The Beet Party [1-82 из ?] (2012-2013) WEB-DLRip от ExKinoRay

8 | 4

2.01 ГБ

В этой теме нет новых непрочитанных сообщений. Овощная вечеринка / The Beet Party [1-85 из ?] (2012-2013) WEB-DLRip от ExKinoRay

27 | 19

2.08 ГБ

В этой теме нет новых непрочитанных сообщений. Овощная вечеринка / The Beet Party [1-82 из ?] (2012-2013) WEB-DLRip 720p от ExKinoRay

1 | 4

2.24 ГБ

В этой теме нет новых непрочитанных сообщений. Овощная вечеринка / The Beet Party [1-85 из ?] (2012-2013) WEB-DLRip 720p от ExKinoRay

7 | 7

2.32 ГБ

В этой теме нет новых непрочитанных сообщений. Прощальная вечеринка / House Party: Tonight’s the Night (2013) WEB-DLRip | P

939 | 152

1.37 ГБ

В этой теме нет новых непрочитанных сообщений. Пляжная вечеринка / National Lampoon Presents: Surf Party (2013) BDRip 1080p от CINEMANIA | L2

190 | 91

7.85 ГБ




Вы не можете начинать темы
Вы не можете отвечать на сообщения
Вы не можете редактировать свои сообщения
Вы не можете удалять свои сообщения
Вы не можете добавлять вложения

Перейти:  
Для Мосгорсуда, Роскомнадзора и рекламодателей: mosgorsud-torrent[собачка]yandex.ru
 Вход
ppkBB3cker v.2 © 2008-2014 @ PPK
[ Time : 0.860s | 16 Queries | GZIP : On ]

Торрент трекер RUTOR.IN, Не можете зайти на rutor.org? Какой новый адрес рутор? Какое зеркало рутор? Не работает rutor.org и зеркала? Тогда наш торрент специально для вас. Rutor.in неофициальное зеркало rutor. В случае если у Вас заблокирован rutor или вдруг Вы не можете на него зайти, то Вы без труда сможете скачать бесплатно и без рекламы последние новинки кино, игр, сериалов и прочего у нас, на Rutor.in. Не нужно использовать прокси, чтобы зайти на рутор, достаточно воспользоваться нашим ресурсом. Все новые фильмы, игры, сериалы, книги и музыка за 2013 и 2014 годы через торрент бесплатно. Скачивайте фильмы в хорошем качестве, игры для пк, xbox, playstation без регистрации. У нас вы найдете новые Зарубежные сериалы и Русские сериалы 2013, 2014, 2015 годов. Оставайтесь с нами, качайте любимые фильмы, игры, сериалы, книги и музыку.
cron