img image001 image001 image001 image001 image001 image001 image001 image001 image001 image001 image001 image001 image001 image001 image001

Planets Sun Sun Sun
Статистика раздачи
Автор: PriZraK | Размер: 7.2 ГБ | Добавлен: 15 июл 2016
Раздают: 2    Качают: 11
Скачать торрент
Скачать торрент
Описание торрента

СообщениеДобавлено: 15 июл 2016 

Информация о фильме
Название: Небесные танцоры
Оригинальное название: Sky Dancers
Год выхода: 1996
Страна: США
Студия: Abrams/Gentile Entertainment, Gaumont Multimedia
Жанр: Мультсериал, семейный, приключения
Продолжительность: 26 х ~ 00:22:02
Перевод: Профессиональный многоголосый закадровый

Режиссер: Фредерик Дыбовский

Роли озвучивали: Андреа Барнс, Джонатан Дэвис, Дон Майо, Джеймс Майкл, Джим О’Мэлли

О фильме: Высоко над облаками находится удивительный мир летающих существ, легендарное Небесное Королевство. Этой волшебной стране грозит опасность! Скай Клоун, правитель Нижнего Мира, и его подручные хотят внести в этот мир Хаос и беспорядок. Королева Скайла обратилась за помощью на Землю. Она предложила юным ученикам знаменитой Академии танцев стать небесными танцорами, спасителями ее чудесной страны. Использую все свое умение и новые волшебные способности, небесные танцоры выступили против Скай Клоуна и его зловещих планов.
01. На небесных рубежах
02. На крыльях песни
03. Разбитый камень
04. В погоне за сенсацией
05. Одинокое сердце
06. Танцуй, Джэйд, танцуй
07. Последний танец
08. Суматоха
09. Расправь крылья
10. Потерять и снова найти
11. Скайлер против Скайлера
12. Азур
13. Назад в будущее
14. Статуи
15. Союз
16. Вечная любовь
17. Где мое тело?
18. Ловушка импов
19. Да здравствует Скай Клон
20. Слэм плохой
21. Момент истины
22. Облако сокровищ
23. Разбитое сердце
24. Темная звезда
25. Сиреневый прилив Скайридиума
26. Операция



Доп. информация:
Семпл



Файл
Формат: AVI
Качество: WEB-DLRip
Видео: 720x536 (1.34:1), 25 fps, XviD build 73 ~1599 kbps avg, 0.17 bit/pixel
Звук: 48 kHz, AC3 Dolby Digital, 2/0 (L,R) ch, ~192.00 kbps avg
Субтитры: нет

09. Расправь крылья. XviD-merci-.avi
Формат : AVI
Формат/Информация : Audio Video Interleave
Размер файла : 284 Мбайт
Продолжительность : 22 м.
Общий поток : 1802 Кбит/сек
Программа кодирования : VirtualDubMod 1.5.10.3 | www.virtualdub-fr.org || (build 2550/release)
Библиотека кодирования : VirtualDubMod build 2550/release

Видео
Идентификатор : 0
Формат : MPEG-4 Visual
Профиль формата : Advanced Simple@L5
Параметр BVOP формата : 2
Параметр QPel формата : Нет
Параметр GMC формата : Без точки перехода
Параметр матрицы формата : Default (MPEG)
Идентификатор кодека : XVID
Идентификатор кодека/Подсказка : XviD
Продолжительность : 22 м.
Битрейт : 1600 Кбит/сек
Ширина : 720 пикселей
Высота : 536 пикселей
Соотношение сторон : 4:3
Частота кадров : 25,000 кадров/сек
Цветовое пространство : YUV
Субдискретизация насыщенности : 4:2:0
Битовая глубина : 8 бит
Тип развёртки : Прогрессивная
Метод сжатия : С потерями
Бит/(Пиксели*Кадры) : 0.166
Размер потока : 252 Мбайт (89%)
Библиотека кодирования : XviD 73

Аудио
Идентификатор : 1
Формат : AC-3
Формат/Информация : Audio Coding 3
Расширение режима : CM (complete main)
Параметр Endianness формата : Big
Идентификатор кодека : 2000
Продолжительность : 22 м.
Вид битрейта : Постоянный
Битрейт : 192 Кбит/сек
Каналы : 2 канала
Расположение каналов : Front: L R
Частота : 48,0 КГц
Частота кадров : 31,250 кадров/сек (1536 spf)
Метод сжатия : С потерями
Размер потока : 30,3 Мбайт (11%)
Выравнивание : Разделение по промежуткам
Продолжительность промежутка : 40 мс. (1,00 видеокадр)
Время предзагрузки промежутка : 500 мс.
Заголовок : rus



Релиз от:
Автор релиза:



   Похожие торренты   Торрент   Размер 
В этой теме нет новых непрочитанных сообщений. Небесные танцовщицы / Sky Dancers [01-26 из 26] (1996) WEB-DLRip

21 | 7

7.96 ГБ

В этой теме нет новых непрочитанных сообщений. Небесные воины / Sci-fighters (1996) DVDRip | A

0 | 3

1.46 ГБ

В этой теме нет новых непрочитанных сообщений. VA - Небесные голоса [3CD] (2002) MP3 от BestSound ExKinoRay

11 | 4

471.43 МБ

В этой теме нет новых непрочитанных сообщений. Жучки / Танцоры / Jitterbugs (1943) DVDRip от egoleshik | L1

34 | 5

1.1 ГБ

В этой теме нет новых непрочитанных сообщений. Майкл Муркок - Танцоры на Краю Времени (2010) MP3

27 | 5

1.27 ГБ

В этой теме нет новых непрочитанных сообщений. Wild Beasts - Two Dancers (2009) FLAC

0 | 1

234.1 МБ

В этой теме нет новых непрочитанных сообщений. The Greg Foat Group - The Dancers At The Edge of Time (2015) MP3

29 | 19

152.32 МБ




Вы не можете начинать темы
Вы не можете отвечать на сообщения
Вы не можете редактировать свои сообщения
Вы не можете удалять свои сообщения
Вы не можете добавлять вложения

Перейти:  
Для Мосгорсуда, Роскомнадзора и рекламодателей: mosgorsud-torrent[собачка]yandex.ru
 Вход
ppkBB3cker v.2 © 2008-2014 @ PPK
[ Time : 0.026s | 15 Queries | GZIP : Off ]

Торрент трекер RUTOR.IN, Не можете зайти на rutor.org? Какой новый адрес рутор? Какое зеркало рутор? Не работает rutor.org и зеркала? Тогда наш торрент специально для вас. Rutor.in неофициальное зеркало rutor. В случае если у Вас заблокирован rutor или вдруг Вы не можете на него зайти, то Вы без труда сможете скачать бесплатно и без рекламы последние новинки кино, игр, сериалов и прочего у нас, на Rutor.in. Не нужно использовать прокси, чтобы зайти на рутор, достаточно воспользоваться нашим ресурсом. Все новые фильмы, игры, сериалы, книги и музыка за 2013 и 2014 годы через торрент бесплатно. Скачивайте фильмы в хорошем качестве, игры для пк, xbox, playstation без регистрации. У нас вы найдете новые Зарубежные сериалы и Русские сериалы 2013, 2014, 2015 годов. Оставайтесь с нами, качайте любимые фильмы, игры, сериалы, книги и музыку.