img image001 image001 image001 image001 image001 image001 image001 image001 image001 image001 image001 image001 image001 image001 image001

Planets Sun Sun Sun
Статистика раздачи
Автор: PriZraK | Размер: 746.19 МБ | Добавлен: 17 июл 2016, 12:59
Раздают: 10    Качают: 5
Скачать торрент
Скачать торрент
Описание торрента

СообщениеДобавлено: 17 июл 2016, 12:59 


Информация о фильме
Название: Бременские музыканты
Год выхода: 1969, 1973
Жанр: Мультфильм, приключения, сказка
Режиссер: Инесса Ковалевская
О фильме: Музыкальная фантазия, любимая не одним поколением зрителей, о необыкновенных, очень опасных и веселых приключениях бременских музыкантов: Трубадура, кота, собаки, петуха и осла. Музыканты путешествуют по Германии времен братьев Гримм и поют вполне современные песни. Время от времени совершают подвиги. Все было хорошо, но во время одного циркового представления приглянулась нашему герою принцесса...

Страна: СССР
Студия: Союзмультфильм
Продолжительность: 00:39:08
Перевод: Не требуется (оригинальный)
Роли озвучивали: Олег Анофриев, Муслим Магомаев, Эльмира Жерздева, Анатолий Горохов, Геннадий Гладков, Леонид Бергер
Файл
Формат: avi
Качество: HDRip (BDRip.1080p)
Видео: XviD, 720x544, 25fps, 2208kbps
Аудио: AC3 Dolby Digital, 6ch, 48000Hz, 448kbps

General
Complete name : Bremehskie.Muzykanty.1973.O.HDRip.700.CurHaJI.avi
Format : AVI
Format/Info : Audio Video Interleave
File size : 746 MiB
Duration : 39mn 8s
Overall bit rate : 2 665 Kbps
Movie name : Bremehskie.Muzykanty.1973.O.HDRip.700.CurHaJI
Writing application : VirtualDubMod 1.5.10.3 | www.virtualdub-fr.org || (build 2550/release)
Writing library : VirtualDub build 35491/release
Video
ID : 0
Format : MPEG-4 Visual
Format profile : Advanced Simple@L5
Format settings, BVOP : 2
Format settings, QPel : No
Format settings, GMC : No warppoints
Format settings, Matrix : Custom
Codec ID : XVID
Codec ID/Hint : XviD
Duration : 39mn 8s
Bit rate : 2 208 Kbps
Width : 720 pixels
Height : 544 pixels
Display aspect ratio : 4:3
Frame rate : 25.000 fps
Color space : YUV
Chroma subsampling : 4:2:0
Bit depth : 8 bits
Scan type : Progressive
Compression mode : Lossy
Bits/(Pixel*Frame) : 0.225
Stream size : 618 MiB (83%)
Writing library : XviD 73
Audio
ID : 1
Format : AC-3
Format/Info : Audio Coding 3
Mode extension : CM (complete main)
Format settings, Endianness : Big
Codec ID : 2000
Duration : 39mn 8s
Bit rate mode : Constant
Bit rate : 448 Kbps
Channel(s) : 6 channels
Channel positions : Front: L C R, Side: L R, LFE
Sampling rate : 48.0 KHz
Bit depth : 16 bits
Compression mode : Lossy
Stream size : 125 MiB (17%)
Alignment : Split accross interleaves
Interleave, duration : 40 ms (1.00 video frame)
Interleave, preload duration : 500 ms



Релиз от:



   Похожие торренты   Торрент   Размер 
В этой теме нет новых непрочитанных сообщений. Бременские музыканты / По следам бременских музыкантов (1969, 1973) DVDRip-AVC

484 | 4

577.98 МБ

В этой теме нет новых непрочитанных сообщений. Бременские музыканты / По следам бременских музыкантов (1969, 1973) BDRip1080p от Freeisland

139 | 11

2.7 ГБ

В этой теме нет новых непрочитанных сообщений. Бременские музыканты / По следам бременских музыкантов (1969, 1973) DVDRip от R.G.RealMT

1170 | 40

527.56 МБ

В этой теме нет новых непрочитанных сообщений. Гримм Братья - По следам Бременских Музыкантов (1973) (2012) FLAC

3 | 2

236.38 МБ

В этой теме нет новых непрочитанных сообщений. Бременские музыканты (1969-1973) BDRip 720p

1511 | 69

1.76 ГБ

В этой теме нет новых непрочитанных сообщений. Бременские музыканты [Дилогия] (1969-1973) DVDRip от MediaClub | КПК

611 | 21

176.67 МБ

В этой теме нет новых непрочитанных сообщений. Бременские музыканты. Сборник мультфильмов (1969-1973) BDRip 1080 от HDReactor

340 | 27

4.37 ГБ




Вы не можете начинать темы
Вы не можете отвечать на сообщения
Вы не можете редактировать свои сообщения
Вы не можете удалять свои сообщения
Вы не можете добавлять вложения

Перейти:  
Для Мосгорсуда, Роскомнадзора и рекламодателей: mosgorsud-torrent[собачка]yandex.ru
Настройки
ppkBB3cker v.2 © 2008-2014 @ PPK
[ Time : 0.017s | 16 Queries | GZIP : Off ]
CGP [Extreme] output time : 0.00020s | 0 Queries | GZIP : Off

Торрент трекер RUTOR.IN, Не можете зайти на rutor.org? Какой новый адрес рутор? Какое зеркало рутор? Не работает rutor.org и зеркала? Тогда наш торрент специально для вас. Rutor.in неофициальное зеркало rutor. В случае если у Вас заблокирован rutor или вдруг Вы не можете на него зайти, то Вы без труда сможете скачать бесплатно и без рекламы последние новинки кино, игр, сериалов и прочего у нас, на Rutor.in. Не нужно использовать прокси, чтобы зайти на рутор, достаточно воспользоваться нашим ресурсом. Все новые фильмы, игры, сериалы, книги и музыка за 2013 и 2014 годы через торрент бесплатно. Скачивайте фильмы в хорошем качестве, игры для пк, xbox, playstation без регистрации. У нас вы найдете новые Зарубежные сериалы и Русские сериалы 2013, 2014, 2015 годов. Оставайтесь с нами, качайте любимые фильмы, игры, сериалы, книги и музыку.