img image001 image001 image001 image001 image001 image001 image001 image001 image001 image001 image001 image001 image001 image001 image001

Planets Sun Sun Sun
Статистика раздачи
Автор: Nickolas3434 | Размер: 2.19 ГБ | Добавлен: 20 июл 2016
Раздают: 15    Качают: 1
Скачать торрент
Скачать торрент
Описание торрента

СообщениеДобавлено: 20 июл 2016 

Информация о фильме
Название: Со склонов Кокурико
Оригинальное название: Kokuriko-zaka kara
Год выхода: 2011
Жанр: аниме, мультфильм, драма
Режиссер: Горо Миядзаки
В ролях: Масами Нагасава, Джуничи Окада, Кейко Такешита, Юрико Ишида, Руми Хираги, Джан Фубуки, Такаши Найто, Шунсуке Кадзама, Нао Омори, Теруюки Кагава

О фильме: Действие сюжета разворачивается в 1963 году, когда у главной героини, школьницы Уми Комацудзаки, погибает отец. История повествует о буднях Коматсудзаки после этого печального события, ее отношениях с членом школьной газеты, президентом студенческого совета и другими одноклассниками.

IMDB 7.2/10 2,372 votes
Кинопоиск 7.888 (1241)

Выпущено: Studio Ghibli
Продолжительность: 01:30:51
Перевод: Дублированный

Файл
Кодек: x264
Качество: BDRip (источник: Blu-ray Disc)
Видео: 1920x1040 (16:9), 23.976 fps, 2550 kbps
Аудио #1: AC-3, 5 ch, 448 kbps (Rus)
Аудио #2: AC-3, 5 ch, 448 kbps (Jpn)
Субтитры: Русские (форс,полные)
Скачать: сэмпл

Скриншоты

Общее
Уникальный идентификатор         : 198226861641881897858694767722379843085 (0x95211AD83914222C9EA670554AA3960D)
Полное имя                       : Kokuriko-zaka.kara.2011.BDRip.1080p.Rus.Jpn.mkv
Формат                           : Matroska
Версия формата                   : Version 2
Размер файла                     : 2,19 Гбайт
Продолжительность                : 1 ч. 30 м.
Общий поток                      : 3447 Кбит/сек
Название фильма                  : Со склонов Кокурико / Kokuriko-zaka kara (2011)
Дата кодирования                 : UTC 2012-12-24 10:59:40
Программа кодирования            : mkvmerge v5.8.0 ('No Sleep / Pillow') built on Sep  2 2012 15:37:04
Библиотека кодирования           : libebml v1.2.3 + libmatroska v1.3.0

Видео
Идентификатор                    : 1
Формат                           : AVC
Формат/Информация                : Advanced Video Codec
Профиль формата                  : High@L4.1
Параметр CABAC формата           : Да
Параметр ReFrames формата        : 4 кадра
Идентификатор кодека             : V_MPEG4/ISO/AVC
Продолжительность                : 1 ч. 30 м.
Битрейт                          : 2550 Кбит/сек
Ширина                           : 1920 пикселей
Высота                           : 1040 пикселей
Соотношение сторон               : 16:9
Частота кадров                   : 23,976 кадра/сек
Цветовое пространство            : YUV
Субдискретизация насыщенности    : 4:2:0
Битовая глубина                  : 8 бит
Тип развёртки                    : Прогрессивная
Бит/(Пиксели*Кадры)              : 0.053
Размер потока                    : 1,58 Гбайт (72%)
Заголовок                        : Release by AlexKa
Библиотека кодирования           : x264 core 129 r2230 1cffe9f
Настройки программы              : cabac=1 / ref=4 / deblock=1:0:0 / analyse=0x3:0x133 / me=umh / subme=9 / psy=1 / psy_rd=1.00:0.00 / mixed_ref=1 / me_range=32 / chroma_me=1 / trellis=2 / 8x8dct=1 / cqm=0 / deadzone=21,11 / fast_pskip=0 / chroma_qp_offset=-2 / threads=12 / lookahead_threads=2 / sliced_threads=0 / nr=0 / decimate=1 / interlaced=0 / bluray_compat=0 / constrained_intra=0 / bframes=7 / b_pyramid=2 / b_adapt=2 / b_bias=0 / direct=3 / weightb=1 / open_gop=0 / weightp=2 / keyint=240 / keyint_min=23 / scenecut=40 / intra_refresh=0 / rc=2pass / mbtree=0 / bitrate=2550 / ratetol=1.0 / qcomp=0.60 / qpmin=0 / qpmax=69 / qpstep=4 / cplxblur=20.0 / qblur=0.5 / ip_ratio=1.40 / pb_ratio=1.30 / aq=1:1.00
Язык                             : Japanese

Аудио #1
Идентификатор                    : 2
Формат                           : AC-3
Формат/Информация                : Audio Coding 3
Расширение режима                : CM (complete main)
Идентификатор кодека             : A_AC3
Продолжительность                : 1 ч. 30 м.
Вид битрейта                     : Постоянный
Битрейт                          : 448 Кбит/сек
Каналы                           : 5 каналов
Расположение каналов             : Front: L C R, Side: L R
Частота                          : 48,0 КГц
Битовая глубина                  : 16 бит
Метод сжатия                     : С потерями
Размер потока                    : 291 Мбайт (13%)
Заголовок                        : Rus
Язык                             : Russian

Аудио #2
Идентификатор                    : 3
Формат                           : AC-3
Формат/Информация                : Audio Coding 3
Расширение режима                : CM (complete main)
Идентификатор кодека             : A_AC3
Продолжительность                : 1 ч. 30 м.
Вид битрейта                     : Постоянный
Битрейт                          : 448 Кбит/сек
Каналы                           : 5 каналов
Расположение каналов             : Front: L C R, Side: L R
Частота                          : 48,0 КГц
Битовая глубина                  : 16 бит
Метод сжатия                     : С потерями
Размер потока                    : 291 Мбайт (13%)
Заголовок                        : Jpn
Язык                             : Japanese

Текст #1
Идентификатор                    : 4
Формат                           : UTF-8
Идентификатор кодека             : S_TEXT/UTF8
Идентификатор кодека/Информация  : UTF-8 Plain Text
Заголовок                        : Rus forced
Язык                             : Russian

Текст #2
Идентификатор                    : 5
Формат                           : UTF-8
Идентификатор кодека             : S_TEXT/UTF8
Идентификатор кодека/Информация  : UTF-8 Plain Text
Заголовок                        : Rus
Язык                             : Russian

Меню
00:00:00.000                     : :Chapter 01
00:07:56.392                     : :Chapter 02
00:15:33.098                     : :Chapter 03
00:22:18.295                     : :Chapter 04
00:26:15.198                     : :Chapter 05
00:35:05.061                     : :Chapter 06
00:42:05.523                     : :Chapter 07
00:50:24.479                     : :Chapter 08
00:58:00.894                     : :Chapter 09
01:04:00.503                     : :Chapter 10
01:11:48.929                     : :Chapter 11
01:17:40.364                     : :Chapter 12
01:30:50.194                     : :Chapter 13



   Похожие торренты   Торрент   Размер 
В этой теме нет новых непрочитанных сообщений. Со склонов Кокурико / Kokuriko-zaka kara (2011) BDRip 1080p

2 | 3

12.49 ГБ

В этой теме нет новых непрочитанных сообщений. Со склонов Кокурико / Kokuriko-zaka kara (2011) BDRip 1080p by msltel | D, P, A

547 | 3

9.88 ГБ

В этой теме нет новых непрочитанных сообщений. Со склонов Кокурико / Kokuriko-zaka kara (2011) BDRip от HQ-ViDEO | D, P

404 | 24

1.46 ГБ

В этой теме нет новых непрочитанных сообщений. Со склонов Кокурико / Kokuriko-zaka kara (2011) BDRip by msltel | D, P, A

11 | 14

2.35 ГБ

В этой теме нет новых непрочитанных сообщений. Со склонов Кокурико / Kokuriko-zaka kara (2011) BDRip 720p by msltel | D, P, A

16 | 5

3.84 ГБ

В этой теме нет новых непрочитанных сообщений. Со склонов Кокурико / From Up on Poppy Hill / Kokuriko-zaka kara (2011) BDRip от HQ-ViDEO | D, P

37 | 14

1.46 ГБ

В этой теме нет новых непрочитанных сообщений. Со склонов Кокурико / Kokuriko-zaka kara (2011) DVD9 R5 от New-Team | D | лицензия

2 | 4

7.87 ГБ




Вы не можете начинать темы
Вы не можете отвечать на сообщения
Вы не можете редактировать свои сообщения
Вы не можете удалять свои сообщения
Вы не можете добавлять вложения

Перейти:  
Для Мосгорсуда, Роскомнадзора и рекламодателей: mosgorsud-torrent[собачка]yandex.ru
 Вход
ppkBB3cker v.2 © 2008-2014 @ PPK
[ Time : 0.064s | 15 Queries | GZIP : Off ]

Торрент трекер RUTOR.IN, Не можете зайти на rutor.org? Какой новый адрес рутор? Какое зеркало рутор? Не работает rutor.org и зеркала? Тогда наш торрент специально для вас. Rutor.in неофициальное зеркало rutor. В случае если у Вас заблокирован rutor или вдруг Вы не можете на него зайти, то Вы без труда сможете скачать бесплатно и без рекламы последние новинки кино, игр, сериалов и прочего у нас, на Rutor.in. Не нужно использовать прокси, чтобы зайти на рутор, достаточно воспользоваться нашим ресурсом. Все новые фильмы, игры, сериалы, книги и музыка за 2013 и 2014 годы через торрент бесплатно. Скачивайте фильмы в хорошем качестве, игры для пк, xbox, playstation без регистрации. У нас вы найдете новые Зарубежные сериалы и Русские сериалы 2013, 2014, 2015 годов. Оставайтесь с нами, качайте любимые фильмы, игры, сериалы, книги и музыку.