img image001 image001 image001 image001 image001 image001 image001 image001 image001 image001 image001 image001 image001 image001 image001

Planets Sun Sun Sun
Статистика раздачи
Автор: Nickolas3434 | Размер: 4.3 ГБ | Добавлен: 20 июл 2016
Раздают: 106    Качают: 20
Скачать торрент
Скачать торрент
Описание торрента

СообщениеДобавлено: 20 июл 2016 

Информация о фильме
Название: Дофус – Книга 1: Джулит / Dofus - Livre 1: Julith
Оригинальное название: Dofus - Livre 1: Julith
Год выхода: 2015
Страна: Франция
Производство: Ankama Animations, CNC, France 3 Cinema, Pictanovo Nord-Pas-de-Calais
Жанр: мультфильм, фэнтези, комедия, приключения
Продолжительность: 01:47:53
Перевод: Любительский (одноголосый, закадровый)
Режиссеры: Жан-Жак Дени, Энтони Ру
Роли озвучивали: Сован Деланоэ, Жан-Клод Донда, Эммануэль Гради, Летиция Лефевр, Франсуа Сьенер
О фильме: В антикварном магазине бывалого путешественника Керуба Крепина — как в пещере сокровищ. Здесь можно найти немало древних вещей, в числе которых оружие, амулеты, артефакты, некоторые из которых — настоящая драгоценность, а некоторые даже наполнены волшебной силой. Десятилетний приёмный сын Керубима мальчик по имени Жорис абсолютно счастлив, однако спокойная жизнь прекращается после того, как Жорис задумал отыскать своего кумира, суперзвезду Гоббоула: именно в этот момент в городе появляется коварная и мстительная ведьма Джулит…


Доп. информация:
Семпл


Файл
Формат: MKV
Качество: WEB-DL 1080p
Видео: MPEG4-AVC, High@L4, 1920x1080 (16:9), ~ 5 208 Kbps, 25.000 fps
Звук #1: 48.0 KHz, AC3 2.0, 192 Kbps VO (русский)
Звук #2: 48.0 KHz, AC3 2.0, 192 Kbps Original (французский)
Субтитры: русские, французские, английские
Главы: есть
Dofus.Livre.1.Julith.2015. WEB-DL.1080p-merci-.mkv
Формат : Matroska
Версия формата : Version 2
Размер файла : 4,30 Гбайт
Продолжительность : 1 ч. 47 м.
Общий поток : 5705 Кбит/сек
Дата кодирования : UTC 2016-07-19 14:19:51
Программа кодирования : mkvmerge v5.8.0 ('No Sleep / Pillow') built on Sep 2 2012 15:37:04
Библиотека кодирования : libebml v1.2.3 + libmatroska v1.3.0
Видео
Идентификатор : 1
Формат : AVC
Формат/Информация : Advanced Video Codec
Профиль формата : High@L4
Параметр CABAC формата : Да
Параметр ReFrames формата : 2 кадра
Идентификатор кодека : V_MPEG4/ISO/AVC
Продолжительность : 1 ч. 47 м.
Битрейт : 5208 Кбит/сек
Ширина : 1920 пикселей
Высота : 1080 пикселей
Соотношение сторон : 16:9
Режим частоты кадров : Постоянный
Частота кадров : 25,000 кадров/сек
Цветовое пространство : YUV
Субдискретизация насыщенности : 4:2:0
Битовая глубина : 8 бит
Тип развёртки : Прогрессивная
Бит/(Пиксели*Кадры) : 0.100
Размер потока : 3,92 Гбайт (91%)
Заголовок : Dofus.Livre.1.Julith.1080p.h264
Язык : French
Default : Да
Forced : Нет
Цветовой диапазон : Limited
Основные цвета : BT.709
Характеристики трансфера : BT.709
Коэффициенты матрицы : BT.709
Аудио #1
Идентификатор : 2
Формат : AC-3
Формат/Информация : Audio Coding 3
Расширение режима : CM (complete main)
Параметр Endianness формата : Big
Идентификатор кодека : A_AC3
Продолжительность : 1 ч. 47 м.
Вид битрейта : Постоянный
Битрейт : 192 Кбит/сек
Каналы : 2 канала
Расположение каналов : Front: L R
Частота : 48,0 КГц
Частота кадров : 31,250 кадров/сек (1536 spf)
Метод сжатия : С потерями
Размер потока : 148 Мбайт (3%)
Заголовок : VO
Язык : Russian
Default : Да
Forced : Нет
Аудио #2
Идентификатор : 3
Формат : AC-3
Формат/Информация : Audio Coding 3
Расширение режима : CM (complete main)
Параметр Endianness формата : Big
Идентификатор кодека : A_AC3
Продолжительность : 1 ч. 47 м.
Вид битрейта : Постоянный
Битрейт : 192 Кбит/сек
Каналы : 2 канала
Расположение каналов : Front: L R
Частота : 48,0 КГц
Частота кадров : 31,250 кадров/сек (1536 spf)
Метод сжатия : С потерями
Размер потока : 148 Мбайт (3%)
Заголовок : Fre
Язык : French
Default : Нет
Forced : Нет
Текст #1
Идентификатор : 4
Формат : UTF-8
Идентификатор кодека : S_TEXT/UTF8
Идентификатор кодека/Информация : UTF-8 Plain Text
Заголовок : Rus
Язык : Russian
Default : Да
Forced : Нет
Текст #2
Идентификатор : 5
Формат : UTF-8
Идентификатор кодека : S_TEXT/UTF8
Идентификатор кодека/Информация : UTF-8 Plain Text
Заголовок : Fre
Язык : French
Default : Нет
Forced : Нет
Текст #3
Идентификатор : 6
Формат : UTF-8
Идентификатор кодека : S_TEXT/UTF8
Идентификатор кодека/Информация : UTF-8 Plain Text
Заголовок : Eng
Язык : English
Default : Нет
Forced : Нет
Меню
00:00:00.000 : en:Chapitre 1
00:10:13.791 : en:Chapitre 2
00:20:10.791 : en:Chapitre 3
00:30:05.791 : en:Chapitre 4
00:40:00.582 : en:Chapitre 5
00:50:05.290 : en:Chapitre 6
01:00:00.498 : en:Chapitre 7
01:09:59.831 : en:Chapitre 8
01:20:09.331 : en:Chapitre 9
01:30:08.664 : en:Chapitre 10


Релиз от:
Автор релиза:



   Похожие торренты   Торрент   Размер 
В этой теме нет новых непрочитанных сообщений. Дофус – Книга 1: Джулит / Dofus - Livre 1: Julith (2015) НDRip | L1

487 | 11

1.46 ГБ

В этой теме нет новых непрочитанных сообщений. Дофус: Сокровища Керуба / The Treasures Of Kerub / Dofus aux trésors de Kérubim [S01] (2013) WEBRip 1080p | D

9 | 9

16.03 ГБ

В этой теме нет новых непрочитанных сообщений. Дофус: Сокровища Керуба / Dofus aux trésors de Kérubim [S01] (2013) HDTVRip | L

28 | 11

5.63 ГБ

В этой теме нет новых непрочитанных сообщений. Дофус: Сокровища Керуба / Dofus aux trésors de Kérubim [S01] (2013) HDTVRip 720р | L

30 | 25

7.35 ГБ

В этой теме нет новых непрочитанных сообщений. Хвала тебе, Мария / Книга Мари / Je vous salue, Marie / Le livre de Marie (1984) BDRip 720p

20 | 6

6.05 ГБ

В этой теме нет новых непрочитанных сообщений. Книга джунглей / The Jungle Book (2016) BDRip 1080p от ExKinoRay | Line

2977 | 498

10.87 ГБ

В этой теме нет новых непрочитанных сообщений. Книга джунглей / The Jungle Book (2016) BDRemux 1080p от ExKinoRay | Лицензия

98 | 72

26.47 ГБ




Вы не можете начинать темы
Вы не можете отвечать на сообщения
Вы не можете редактировать свои сообщения
Вы не можете удалять свои сообщения
Вы не можете добавлять вложения

Перейти:  
Для Мосгорсуда, Роскомнадзора и рекламодателей: mosgorsud-torrent[собачка]yandex.ru
 Вход
ppkBB3cker v.2 © 2008-2014 @ PPK
[ Time : 0.039s | 16 Queries | GZIP : Off ]

cron