img image001 image001 image001 image001 image001 image001 image001 image001 image001 image001 image001 image001 image001 image001 image001

Planets Sun Sun Sun
Статистика раздачи
Автор: PriZraK | Размер: 3.75 ГБ | Добавлен: 25 июл 2016
Раздают: 24    Качают: 4
Скачать торрент
Скачать торрент
Описание торрента

СообщениеДобавлено: 25 июл 2016 

Информация о фильме
Название: Аномализа
Оригинальное название: Anomalisa
Год выхода: 2015
Жанр: Мультфильм, полнометражный, драма, комедия
Режиссер: Дьюк Джонсон, Чарли Кауфман
В ролях: Дэвид Тьюлис, Дженнифер Джейсон Ли, Том Нунен
О фильме:
Майкл Стоун, автор книг по обслуживанию клиентов, страдает от неспособности контактировать с людьми. Однажды, в ходе очередной рабочей поездки, он встречает незнакомца, который меняет его мировосприятие.

Страна: США
Студия: Paramount Animation, Starburns Industries
Продолжительность: 01:30:36
Перевод: Дублированный | Лицензия Blu-Ray CEE
Файл
Кодек: x264
Качество: BDRip 720p
Видео: 1280x534, 3771 Kbit/s, 23.976 fps
Звук:
Аудио #01: 48 kHz, AC3, 5.1, 640 Kbps | Дублированный. Лицензия Blu-Ray CEE |
Аудио #02: 48 kHz, DTS, 5.1, 1510 kbps | Оригинал |
Субтитры: Русские, английские
General
Unique ID : 191039137426549109460893730904445138330 (0x8FB8CCAE208EED6995F5305CE30DB59A)
Complete name : G:VideoAnomalisa.2015.D.BDRip.720p.ExKinoRay.mkv
Format : Matroska
Format version : Version 4 / Version 2
File size : 3.75 GiB
Duration : 1h 30mn
Overall bit rate : 5 923 Kbps
Movie name : Anomalisa.2015.D.BDRip.720p.ExKinoRay
Encoded date : UTC 2016-07-24 14:10:07
Writing application : mkvmerge v8.3.0 ('Over the Horizon') 64bit
Writing library : libebml v1.3.1 + libmatroska v1.4.2
Video
ID : 1
Format : AVC
Format/Info : Advanced Video Codec
Format profile : High@L4.1
Format settings, CABAC : Yes
Format settings, ReFrames : 9 frames
Codec ID : V_MPEG4/ISO/AVC
Duration : 1h 30mn
Bit rate : 3 771 Kbps
Width : 1 280 pixels
Height : 534 pixels
Display aspect ratio : 2.40:1
Frame rate mode : Constant
Frame rate : 23.976 (24000/1001) fps
Color space : YUV
Chroma subsampling : 4:2:0
Bit depth : 8 bits
Scan type : Progressive
Bits/(Pixel*Frame) : 0.230
Stream size : 2.39 GiB (64%)
Writing library : x264 core 148 r2692+46 0f71ed5 7mod [8-bit@all X86_64]
Encoding settings : cabac=1 / ref=9 / deblock=1:-3:-3 / analyse=0x3:0x113 / me=umh / subme=11 / psy=1 / fade_compensate=0.00 / psy_rd=0.80:0.10 / mixed_ref=1 / me_range=32 / chroma_me=1 / trellis=2 / 8x8dct=1 / cqm=0 / deadzone=21,11 / fast_pskip=0 / chroma_qp_offset=-2 / threads=12 / lookahead_threads=3 / sliced_threads=0 / nr=0 / decimate=1 / interlaced=0 / bluray_compat=0 / constrained_intra=0 / fgo=0 / bframes=12 / b_pyramid=2 / b_adapt=2 / b_bias=0 / direct=3 / weightb=1 / open_gop=0 / weightp=2 / keyint=250 / keyint_min=23 / scenecut=40 / intra_refresh=0 / rc_lookahead=40 / rc=crf / mbtree=0 / crf=14.0000 / qcomp=0.60 / qpmin=0:0:0 / qpmax=69:69:69 / qpstep=4 / vbv_maxrate=30000 / vbv_bufsize=30000 / crf_max=0.0 / nal_hrd=none / filler=0 / ip_ratio=1.40 / pb_ratio=1.30 / aq=3:0.80 / aq-sensitivity=10.00 / aq-factor=1.00:1.00:1.00 / aq2=0 / aq3=0
Language : English
Default : Yes
Forced : No
Color range : Limited
Matrix coefficients : BT.709
Audio #1
ID : 2
Format : AC-3
Format/Info : Audio Coding 3
Mode extension : CM (complete main)
Format settings, Endianness : Big
Codec ID : A_AC3
Duration : 1h 30mn
Bit rate mode : Constant
Bit rate : 640 Kbps
Channel(s) : 6 channels
Channel positions : Front: L C R, Side: L R, LFE
Sampling rate : 48.0 KHz
Frame rate : 31.250 fps (1536 spf)
Compression mode : Lossy
Stream size : 415 MiB (11%)
Title : DUB [Blu-Ray CEE]
Language : Russian
Default : Yes
Forced : No
Audio #2
ID : 3
Format : DTS
Format/Info : Digital Theater Systems
Mode : 16
Format settings, Endianness : Big
Codec ID : A_DTS
Duration : 1h 30mn
Bit rate mode : Constant
Bit rate : 1 509 Kbps
Channel(s) : 6 channels
Channel positions : Front: L C R, Side: L R, LFE
Sampling rate : 48.0 KHz
Frame rate : 93.750 fps (512 spf)
Bit depth : 24 bits
Compression mode : Lossy
Stream size : 978 MiB (25%)
Title : Original
Language : English
Default : No
Forced : No
Text #1
ID : 4
Format : UTF-8
Codec ID : S_TEXT/UTF8
Codec ID/Info : UTF-8 Plain Text
Duration : 1h 28mn
Bit rate : 92 bps
Count of elements : 835
Stream size : 60.1 KiB (0%)
Title : Full
Language : Russian
Default : No
Forced : No
Text #2
ID : 5
Format : UTF-8
Codec ID : S_TEXT/UTF8
Codec ID/Info : UTF-8 Plain Text
Duration : 1h 26mn
Bit rate : 65 bps
Count of elements : 1517
Stream size : 41.7 KiB (0%)
Title : Full
Language : English
Default : No
Forced : No
Menu
00:00:00.000 : en:Fire or Ice
00:08:47.694 : en:Roundtrip Tickets
00:17:37.515 : en:Checking To See If You Are Still Human
00:25:17.516 : en:Doesn't He Own a Shirt?
00:30:20.402 : en:Our Magic Awakens When They Are Near
00:36:45.078 : en:You Wouldn't Have to Change For Me
00:43:31.776 : en:I Was A Little Theatrical Back Then
00:50:13.761 : en:This Is The Time To Make Mistakes
00:55:34.373 : en:Never Go For The Obvious Kill
01:00:11.608 : en:Battle Scars
01:06:12.218 : en:Edward Is Old School
01:13:05.214 : en:Do Me The Honor
01:19:43.362 : en:Carrying Bella To Safety
01:25:15.819 : en:Attempt To Control Your Thoughts
01:31:27.232 : en:That Should Have Been Our First Kiss
01:35:54.958 : en:She Knew You Would Be With Me
01:43:19.985 : en:The Volturi Don't Give Second Chances
01:51:53.498 : en:It's Where I Belong

Релиз от: Автор релиза:



   Похожие торренты   Торрент   Размер 
В этой теме нет новых непрочитанных сообщений. Аномализа / Anomalisa (2015) BDRip от ExKinoRay | Лицензия

37 | 1

1.46 ГБ

В этой теме нет новых непрочитанных сообщений. Аномализа / Anomalisa (2015) BDRip-AVC от ExKinoRay | iTunes

4 | 0

1.35 ГБ

В этой теме нет новых непрочитанных сообщений. Аномализа / Anomalisa (2015) BDRip 1080p от ExKinoRay | iTunes Russia

33 | 4

4.78 ГБ

В этой теме нет новых непрочитанных сообщений. Аномализа / Anomalisa (2015) BDRip-AVC от New-Team | Лицензия

47 | 19

746.32 МБ

В этой теме нет новых непрочитанных сообщений. Аномализа / Anomalisa (2015) BDRip-AVC от New-Team | Лицензия

62 | 10

1.46 ГБ

В этой теме нет новых непрочитанных сообщений. Аномализа / Anomalisa (2015) BDRip 720p | iTunes

38 | 4

2.89 ГБ

В этой теме нет новых непрочитанных сообщений. Аномализа / Anomalisa (2015) BDRip 720p | Дополнительные материалы | Sub

7 | 1

1.33 ГБ




Вы не можете начинать темы
Вы не можете отвечать на сообщения
Вы не можете редактировать свои сообщения
Вы не можете удалять свои сообщения
Вы не можете добавлять вложения

Перейти:  
Для Мосгорсуда, Роскомнадзора и рекламодателей: mosgorsud-torrent[собачка]yandex.ru
 Вход
ppkBB3cker v.2 © 2008-2014 @ PPK
[ Time : 0.520s | 18 Queries | GZIP : Off ]

Торрент трекер RUTOR.IN, Не можете зайти на rutor.org? Какой новый адрес рутор? Какое зеркало рутор? Не работает rutor.org и зеркала? Тогда наш торрент специально для вас. Rutor.in неофициальное зеркало rutor. В случае если у Вас заблокирован rutor или вдруг Вы не можете на него зайти, то Вы без труда сможете скачать бесплатно и без рекламы последние новинки кино, игр, сериалов и прочего у нас, на Rutor.in. Не нужно использовать прокси, чтобы зайти на рутор, достаточно воспользоваться нашим ресурсом. Все новые фильмы, игры, сериалы, книги и музыка за 2013 и 2014 годы через торрент бесплатно. Скачивайте фильмы в хорошем качестве, игры для пк, xbox, playstation без регистрации. У нас вы найдете новые Зарубежные сериалы и Русские сериалы 2013, 2014, 2015 годов. Оставайтесь с нами, качайте любимые фильмы, игры, сериалы, книги и музыку.