img image001 image001 image001 image001 image001 image001 image001 image001 image001 image001 image001 image001 image001 image001 image001

Planets Sun Sun Sun
Статистика раздачи
Автор: PriZraK | Размер: 746.82 МБ | Добавлен: 25 июл 2016
Раздают: 66    Качают: 4
Скачать торрент
Скачать торрент
Описание торрента

СообщениеДобавлено: 25 июл 2016 

Робинзон Крузо: Очень обитаемый остров
Robinson Crusoe
«Однажды на берег очень даже обитаемого острова...»


Страна: Франция, Бельгия
Жанр: мультфильм, комедия, приключения
Год выпуска: 2016
Продолжительность: 01:29:37
Перевод: Профессиональный (полное дублирование) [Blu-ray RUS]
Cубтитры: нет
Оригинальная аудиодорожка: нет
Режиссер: Винсент Кестелут / Vincent Kesteloot, Бен Стассен / Ben Stassen
В ролях: Рон Аллен, Джордж Бэббит, Лайла Берзиньш, Илька Бессин, Джои Камен, Джефф Дусетте, Джефф Дусетте, Сэнди Фокс, Дитер Халлерворден, Кайл Херберт, Мэриев Херингтон, Дэвид Ховард
Описание:
Все знают историю о Робинзоне Крузо, попавшем на необитаемый остров. Однако, как же можно назвать его необитаемым, если он населен разнообразными веселыми животными и птицами? Они очень удивились, впервые встретив это странное существо, и даже приняли его за морское чудовище. Попугаю по кличке Вторник и его друзьям — хамелеону, тапиру и другим обитателям острова предстоит поближе познакомиться с незнакомым зверем «человеком» и вместе с ним пережить массу опасных и веселых приключений.

Релиз:
Автор рипа: stalkerok
Сэмпл
Качество видео: BDRip-AVC [Robinson Crusoe (2016) Blu-ray RUS 1080p AVC DTS-HD 5.1 HDCLUB]
Формат видео: MKV
Видео кодек: AVC
Аудио кодек: AAC
Видео: 1099 Кбит/сек, 750*314 (2,40:1), в 24,000 кадра/сек, AVC
Аудио: русский, 64,0 Кбит/сек, 48,0 КГц / 24,0 КГц, 2 канала, AAC (HE-AAC / LC)
Навигация по главам: есть

Общее
Уникальный идентификатор : 183936816517458472032556933275852489462 (0x8A60F1394D8D2854B27162F30C4842F6)
Полное имя : M:2RipsRobinson CrusoeRobinson.Crusoe.2016.BDRip-AVC.Dub.745Mb.stalkerok.new-team.mkv
Формат : Matroska
Версия формата : Version 4 / Version 2
Размер файла : 747 Мбайт
Продолжительность : 1 ч. 29 м.
Общий поток : 1165 Кбит/сек
Название фильма : Robinson Crusoe (2016) (Rip by stalkerok)
Дата кодирования : UTC 2016-07-24 18:12:59
Программа кодирования : mkvmerge v8.6.1 ('Flying') 64bit
Библиотека кодирования : libebml v1.3.3 + libmatroska v1.4.4
Видео
Идентификатор : 1
Формат : AVC
Формат/Информация : Advanced Video Codec
Профиль формата : High@L4.1
Параметр CABAC формата : Да
Параметр ReFrames формата : 16 кадров
Идентификатор кодека : V_MPEG4/ISO/AVC
Продолжительность : 1 ч. 29 м.
Битрейт : 1099 Кбит/сек
Ширина : 750 пикселей
Высота : 314 пикселей
Соотношение сторон : 2,40:1
Соотношение сторон в оригинале : 2,40:1
Режим частоты кадров : Постоянный
Частота кадров : 24,000 кадра/сек
Цветовое пространство : YUV
Субдискретизация насыщенности : 4:2:0
Битовая глубина : 8 бит
Тип развёртки : Прогрессивная
Бит/(Пиксели*Кадры) : 0.194
Размер потока : 705 Мбайт (94%)
Заголовок : Robinson Crusoe (2016) (Rip by stalkerok)
Библиотека кодирования : x264 core 148 r2705+54 9f484c1 t_mod_Custom [8-bit@all X86_64]
Настройки программы : cabac=1 / ref=16 / deblock=1:-1:-1 / analyse=0x3:0x133 / me=umh / subme=11 / psy=1 / fade_compensate=0.00 / psy_rd=1.00:0.00 / mixed_ref=1 / me_range=32 / chroma_me=1 / trellis=2 / 8x8dct=1 / cqm=0 / deadzone=21,11 / fast_pskip=0 / chroma_qp_offset=-2 / threads=10 / lookahead_threads=2 / sliced_threads=0 / nr=0 / decimate=0 / interlaced=0 / bluray_compat=0 / constrained_intra=0 / fgo=0 / bframes=16 / b_pyramid=2 / b_adapt=2 / b_bias=0 / direct=3 / weightb=1 / open_gop=0 / weightp=2 / keyint=240 / keyint_min=23 / scenecut=40 / intra_refresh=0 / rc_lookahead=60 / rc=2pass / mbtree=0 / bitrate=1099 / ratetol=1.0 / qcomp=0.65 / qpmin=0:0:0 / qpmax=69:69:69 / qpstep=4 / cplxblur=20.0 / qblur=0.5 / vbv_maxrate=50000 / vbv_bufsize=62500 / nal_hrd=none / filler=0 / ip_ratio=1.40 / pb_ratio=1.30 / aq=3:0.90 / aq-sensitivity=10.00 / aq-factor=1.00:1.00:1.00 / aq2=0 / aq3=0
Default : Да
Forced : Нет
Аудио
Идентификатор : 2
Формат : AAC
Формат/Информация : Advanced Audio Codec
Профиль формата : HE-AAC / LC
Идентификатор кодека : A_AAC
Продолжительность : 1 ч. 29 м.
Битрейт : 64,0 Кбит/сек
Каналы : 2 канала
Расположение каналов : Front: L R
Частота : 48,0 КГц / 24,0 КГц
Частота кадров : 23,438 кадра/сек (1024 spf)
Метод сжатия : С потерями
Задержка видео : 31 мс.
Размер потока : 41,0 Мбайт (5%)
Язык : Russian
Default : Да
Forced : Нет
Меню
00:00:00.000 : en:Chapter 1
00:00:12.833 : en:Chapter 2
00:10:55.458 : en:Chapter 3
00:24:01.083 : en:Chapter 4
00:34:15.791 : en:Chapter 5
00:46:22.125 : en:Chapter 6
00:59:04.958 : en:Chapter 7
01:10:23.625 : en:Chapter 8
01:19:01.291 : en:Chapter 9





   Похожие торренты   Торрент   Размер 
В этой теме нет новых непрочитанных сообщений. Робинзон Крузо: Очень обитаемый остров / Robinson Crusoe (2016) BDRip-AVC от New-Team | Лицензия

314 | 21

2.15 ГБ

В этой теме нет новых непрочитанных сообщений. Робинзон Крузо: Очень обитаемый остров / Robinson Crusoe (2016) BDRip-AVC от New-Team | Лицензия

263 | 3

1.46 ГБ

В этой теме нет новых непрочитанных сообщений. Робинзон Крузо: Очень обитаемый остров / Robinson Crusoe (2016) DVD9 от New-Team | Лицензия

20 | 23

5.35 ГБ

В этой теме нет новых непрочитанных сообщений. Робинзон Крузо: Очень обитаемый остров / Robinson Crusoe (2016) BDRip 1080р | D | Лицензия

152 | 17

4.37 ГБ

В этой теме нет новых непрочитанных сообщений. Робинзон Крузо: Очень обитаемый остров / Robinson Crusoe (2016) BDRip от MegaPeer | Лицензия

2563 | 348

1.46 ГБ

В этой теме нет новых непрочитанных сообщений. Робинзон Крузо: Очень обитаемый остров / Robinson Crusoe (2016) BDRip от ExKinoRay | Лицензия

156 | 7

1.46 ГБ

В этой теме нет новых непрочитанных сообщений. Робинзон Крузо: Очень обитаемый остров / Robinson Crusoe (2016) BDRip от HQCLUB | Лицензия

71 | 1

1.45 ГБ




Вы не можете начинать темы
Вы не можете отвечать на сообщения
Вы не можете редактировать свои сообщения
Вы не можете удалять свои сообщения
Вы не можете добавлять вложения

Перейти:  
Для Мосгорсуда, Роскомнадзора и рекламодателей: mosgorsud-torrent[собачка]yandex.ru
 Вход
ppkBB3cker v.2 © 2008-2014 @ PPK
[ Time : 0.087s | 17 Queries | GZIP : Off ]

cron