img image001 image001 image001 image001 image001 image001 image001 image001 image001 image001 image001 image001 image001 image001 image001

Planets Sun Sun Sun
Статистика раздачи
Автор: PriZraK | Размер: 3.15 ГБ | Добавлен: 29 июл 2016
Раздают: 167    Качают: 12
Скачать торрент
Скачать торрент
Описание торрента

СообщениеДобавлено: 29 июл 2016 

Информация о фильме
Название: Робинзон Крузо: Очень обитаемый остров
Оригинальное название: Robinson Crusoe
Год выхода: 2016
Жанр: Мультфильм, комедия, приключения
Режиссер: Винсент Кестелут, Бен Стассен
В ролях: Рон Аллен, Джордж Бэббит, Лайла Берзиньш, Илька Бессин, Джои Камен, Джефф Дусетте, Сэнди Фокс, Дитер Халлерворден, Кайл Херберт
О фильме:
Все знают историю о Робинзоне Крузо, попавшем на необитаемый остров. Однако, как же можно назвать его необитаемым, если он населен разнообразными веселыми животными и птицами? Они очень удивились, впервые встретив это странное существо, и даже приняли его за морское чудовище. Попугаю по кличке Вторник и его друзьям — хамелеону, тапиру и другим обитателям острова предстоит поближе познакомиться с незнакомым зверем «человеком» и вместе с ним пережить массу опасных и веселых приключений.

Страна: Франция, Бельгия
Студия: Marv Films, nWave Pictures, Studio Canal, uFilm
Продолжительность: 01:29:37
Перевод: Дублированный | Лицензия
Файл
Кодек: x264
Качество: BDRip 720p
Видео: 1280x536, 3902 Kbit/s, 23.976 fps
Звук:
Аудио #01: 48 kHz, AC3, 5.1, 640 Kbps | Дублированный, Лицензия |
Аудио #02: 48 kHz, AC3, 5.1, 448 kbps | Оригинал |
General
Unique ID : 254433680001393538632451027891939824574 (0xBF6A24F1FE69BC0EADD079E28EFDD3BE)
Complete name : G:VideoRobinson.Crusoe.2016.D.BDRip.720p.ExKinoRay.mkv
Format : Matroska
Format version : Version 4 / Version 2
File size : 3.15 GiB
Duration : 1h 30mn
Overall bit rate : 4 987 Kbps
Movie name : Robinson.Crusoe.2016.D.BDRip.720p.ExKinoRay
Encoded date : UTC 2016-07-25 12:16:56
Writing application : mkvmerge v8.3.0 ('Over the Horizon') 64bit
Writing library : libebml v1.3.1 + libmatroska v1.4.2
Video
ID : 1
Format : AVC
Format/Info : Advanced Video Codec
Format profile : High@L4.1
Format settings, CABAC : Yes
Format settings, ReFrames : 12 frames
Codec ID : V_MPEG4/ISO/AVC
Duration : 1h 30mn
Bit rate : 3 902 Kbps
Width : 1 280 pixels
Height : 536 pixels
Display aspect ratio : 2.40:1
Frame rate mode : Constant
Frame rate : 23.976 (24000/1001) fps
Color space : YUV
Chroma subsampling : 4:2:0
Bit depth : 8 bits
Scan type : Progressive
Bits/(Pixel*Frame) : 0.237
Stream size : 2.47 GiB (78%)
Writing library : x264 core 148 r2699 a5e06b9
Encoding settings : cabac=1 / ref=12 / deblock=1:-3:-3 / analyse=0x3:0x133 / me=umh / subme=10 / psy=1 / psy_rd=0.90:0.00 / mixed_ref=1 / me_range=32 / chroma_me=1 / trellis=2 / 8x8dct=1 / cqm=0 / deadzone=21,11 / fast_pskip=1 / chroma_qp_offset=-2 / threads=6 / lookahead_threads=1 / sliced_threads=0 / nr=0 / decimate=1 / interlaced=0 / bluray_compat=0 / constrained_intra=0 / bframes=8 / b_pyramid=2 / b_adapt=2 / b_bias=0 / direct=3 / weightb=1 / open_gop=0 / weightp=2 / keyint=250 / keyint_min=23 / scenecut=40 / intra_refresh=0 / rc_lookahead=60 / rc=crf / mbtree=1 / crf=14.5 / qcomp=0.60 / qpmin=0 / qpmax=69 / qpstep=4 / ip_ratio=1.40 / aq=1:0.90
Language : English
Default : Yes
Forced : No
Audio #1
ID : 2
Format : AC-3
Format/Info : Audio Coding 3
Mode extension : CM (complete main)
Format settings, Endianness : Big
Codec ID : A_AC3
Duration : 1h 29mn
Bit rate mode : Constant
Bit rate : 640 Kbps
Channel(s) : 6 channels
Channel positions : Front: L C R, Side: L R, LFE
Sampling rate : 48.0 KHz
Frame rate : 31.250 fps (1536 spf)
Compression mode : Lossy
Stream size : 411 MiB (13%)
Title : Dub [License]
Language : Russian
Default : Yes
Forced : No
Audio #2
ID : 3
Format : AC-3
Format/Info : Audio Coding 3
Mode extension : CM (complete main)
Format settings, Endianness : Big
Codec ID : A_AC3
Duration : 1h 30mn
Bit rate mode : Constant
Bit rate : 448 Kbps
Channel(s) : 6 channels
Channel positions : Front: L C R, Side: L R, LFE
Sampling rate : 48.0 KHz
Frame rate : 31.250 fps (1536 spf)
Compression mode : Lossy
Delay relative to video : 24ms
Stream size : 290 MiB (9%)
Title : Original
Language : English
Default : No
Forced : No
Menu
00:00:00.000 : en:(01)00:00:00:000
00:11:40.322 : en:(02)00:11:40:322
00:24:47.067 : en:(03)00:24:47:067
00:35:02.266 : en:(04)00:35:02:266
00:44:30.208 : en:(05)00:44:30:208
00:54:34.271 : en:(06)00:54:34:271
01:04:27.280 : en:(07)01:04:27:280
01:15:12.631 : en:(08)01:15:12:631
01:25:14.649 : en:(09)01:25:14:649

Релиз от: Автор релиза:



   Похожие торренты   Торрент   Размер 
В этой теме нет новых непрочитанных сообщений. Робинзон Крузо: Очень обитаемый остров / Robinson Crusoe (2016) BDRip от ExKinoRay | Лицензия

185 | 7

1.46 ГБ

В этой теме нет новых непрочитанных сообщений. Робинзон Крузо: Очень обитаемый остров / Robinson Crusoe (2016) BDRip 1080p от ExKinoRay | Лицензия

195 | 22

6.58 ГБ

В этой теме нет новых непрочитанных сообщений. Робинзон Крузо: Очень обитаемый остров / Robinson Crusoe (2016) BDRip 720p от HELLYWOOD | GER-Transfer | Лицензия

437 | 27

3.97 ГБ

В этой теме нет новых непрочитанных сообщений. Робинзон Крузо: Очень обитаемый остров / Robinson Crusoe (2016) BDRip 1080р | D | Лицензия

152 | 17

4.37 ГБ

В этой теме нет новых непрочитанных сообщений. Робинзон Крузо: Очень обитаемый остров / Robinson Crusoe (2016) BDRip-AVC от New-Team | Лицензия

322 | 7

1.46 ГБ

В этой теме нет новых непрочитанных сообщений. Робинзон Крузо: Очень обитаемый остров / Robinson Crusoe (2016) BDRip-AVC от New-Team | Лицензия

419 | 21

2.15 ГБ

В этой теме нет новых непрочитанных сообщений. Робинзон Крузо: Очень обитаемый остров / Robinson Crusoe (2016) BDRip от MegaPeer | Лицензия

2726 | 350

1.46 ГБ




Вы не можете начинать темы
Вы не можете отвечать на сообщения
Вы не можете редактировать свои сообщения
Вы не можете удалять свои сообщения
Вы не можете добавлять вложения

Перейти:  
Для Мосгорсуда, Роскомнадзора и рекламодателей: mosgorsud-torrent[собачка]yandex.ru
 Вход
ppkBB3cker v.2 © 2008-2014 @ PPK
[ Time : 0.088s | 16 Queries | GZIP : Off ]

Торрент трекер RUTOR.IN, Не можете зайти на rutor.org? Какой новый адрес рутор? Какое зеркало рутор? Не работает rutor.org и зеркала? Тогда наш торрент специально для вас. Rutor.in неофициальное зеркало rutor. В случае если у Вас заблокирован rutor или вдруг Вы не можете на него зайти, то Вы без труда сможете скачать бесплатно и без рекламы последние новинки кино, игр, сериалов и прочего у нас, на Rutor.in. Не нужно использовать прокси, чтобы зайти на рутор, достаточно воспользоваться нашим ресурсом. Все новые фильмы, игры, сериалы, книги и музыка за 2013 и 2014 годы через торрент бесплатно. Скачивайте фильмы в хорошем качестве, игры для пк, xbox, playstation без регистрации. У нас вы найдете новые Зарубежные сериалы и Русские сериалы 2013, 2014, 2015 годов. Оставайтесь с нами, качайте любимые фильмы, игры, сериалы, книги и музыку.