img image001 image001 image001 image001 image001 image001 image001 image001 image001 image001 image001 image001 image001 image001 image001

Planets Sun Sun Sun
Статистика раздачи
Автор: PriZraK | Размер: 1.46 ГБ | Добавлен: 29 июл 2016
Раздают: 62    Качают: 10
Скачать торрент
Скачать торрент
Описание торрента

СообщениеДобавлено: 29 июл 2016 

Аномализа
Anomalisa


Страна: США
Жанр: мультфильм, драма, мелодрама, комедия
Год выпуска: 2015
Продолжительность: 01:30:36
Перевод: Профессиональный (полное дублирование) [Blu-ray CEE]
Cубтитры: русские (форсированные, полные), английские (полные, SDH)
Оригинальная аудиодорожка: английский
Режиссер: Дьюк Джонсон / Duke Johnson, Чарли Кауфман / Charlie Kaufman
В ролях: Дэвид Тьюлис, Дженнифер Джейсон Ли, Том Нунен
Описание:
Майкл Стоун, автор книг по обслуживанию клиентов, страдает от неспособности контактировать с людьми. Однажды, в ходе очередной рабочей поездки, он встречает незнакомку, которая меняет его мировосприятие.

Релиз:
Автор рипа: stalkerok
Сэмпл
Качество видео: BDRip-AVC [Anomalisa (2015) Blu-ray CEE 1080p AVC DD5.1 HDCLUB]
Формат видео: MKV
Видео кодек: AVC
Аудио кодек: AC3
Видео: 1662 Кбит/сек, 1152x480 (2.40:1), 23,976 кадр/сек, AVC
Аудио №1: русский, 448 Кбит/сек, 48 КГц, 16 бит, 5.1, AC3
Аудио №2: английский, 192 Кбит/сек, 48 КГц, 16 бит, 2.0, AC3
Навигация по главам: есть

Общее
Уникальный идентификатор : 239304508234700696139386763431469143868 (0xB4085F2FD4F8C6F981FCFEE32320573C)
Полное имя : M:2RipsAnomalisaAnomalisa.2015.BDRip-AVC.Dub.1.45Gb.stalkerok.new-team.mkv
Формат : Matroska
Версия формата : Version 4 / Version 2
Размер файла : 1,46 Гбайт
Продолжительность : 1 ч. 30 м.
Общий поток : 2304 Кбит/сек
Название фильма : Anomalisa (2015) (Rip by stalkerok)
Дата кодирования : UTC 2016-07-25 14:45:44
Программа кодирования : mkvmerge v8.6.1 ('Flying') 64bit
Библиотека кодирования : libebml v1.3.3 + libmatroska v1.4.4
Видео
Идентификатор : 1
Формат : AVC
Формат/Информация : Advanced Video Codec
Профиль формата : High@L4.1
Параметр CABAC формата : Да
Параметр ReFrames формата : 14 кадров
Идентификатор кодека : V_MPEG4/ISO/AVC
Продолжительность : 1 ч. 30 м.
Битрейт : 1662 Кбит/сек
Ширина : 1152 пикселя
Высота : 480 пикселей
Соотношение сторон : 2,40:1
Режим частоты кадров : Постоянный
Частота кадров : 23,976 (24000/1001) кадра/сек
Цветовое пространство : YUV
Субдискретизация насыщенности : 4:2:0
Битовая глубина : 8 бит
Тип развёртки : Прогрессивная
Бит/(Пиксели*Кадры) : 0.125
Размер потока : 1,05 Гбайт (72%)
Заголовок : Anomalisa (2015) (Rip by stalkerok)
Библиотека кодирования : x264 core 148 r2705+54 9f484c1 t_mod_Custom [8-bit@all X86_64]
Настройки программы : cabac=1 / ref=14 / deblock=1:-1:-1 / analyse=0x3:0x133 / me=umh / subme=10 / psy=1 / fade_compensate=0.00 / psy_rd=1.00:0.00 / mixed_ref=1 / me_range=32 / chroma_me=1 / trellis=2 / 8x8dct=1 / cqm=0 / deadzone=21,11 / fast_pskip=0 / chroma_qp_offset=-2 / threads=12 / lookahead_threads=3 / sliced_threads=0 / nr=0 / decimate=0 / interlaced=0 / bluray_compat=0 / constrained_intra=0 / fgo=0 / bframes=14 / b_pyramid=2 / b_adapt=2 / b_bias=0 / direct=3 / weightb=1 / open_gop=0 / weightp=2 / keyint=240 / keyint_min=23 / scenecut=40 / intra_refresh=0 / rc_lookahead=60 / rc=2pass / mbtree=0 / bitrate=1662 / ratetol=1.0 / qcomp=0.65 / qpmin=0:0:0 / qpmax=69:69:69 / qpstep=4 / cplxblur=20.0 / qblur=0.5 / vbv_maxrate=50000 / vbv_bufsize=62500 / nal_hrd=none / filler=0 / ip_ratio=1.40 / pb_ratio=1.30 / aq=3:0.80 / aq-sensitivity=10.00 / aq-factor=1.00:1.00:1.00 / aq2=0 / aq3=0
Default : Да
Forced : Нет
Аудио #1
Идентификатор : 2
Формат : AC-3
Формат/Информация : Audio Coding 3
Расширение режима : CM (complete main)
Параметр Endianness формата : Big
Идентификатор кодека : A_AC3
Продолжительность : 1 ч. 30 м.
Вид битрейта : Постоянный
Битрейт : 448 Кбит/сек
Каналы : 6 каналов
Расположение каналов : Front: L C R, Side: L R, LFE
Частота : 48,0 КГц
Частота кадров : 31,250 кадров/сек (1536 spf)
Метод сжатия : С потерями
Размер потока : 290 Мбайт (19%)
Язык : Russian
Default : Да
Forced : Нет
Аудио #2
Идентификатор : 3
Формат : AC-3
Формат/Информация : Audio Coding 3
Расширение режима : CM (complete main)
Параметр Endianness формата : Big
Идентификатор кодека : A_AC3
Продолжительность : 1 ч. 30 м.
Вид битрейта : Постоянный
Битрейт : 192 Кбит/сек
Каналы : 2 канала
Расположение каналов : Front: L R
Частота : 48,0 КГц
Частота кадров : 31,250 кадров/сек (1536 spf)
Метод сжатия : С потерями
Размер потока : 124 Мбайт (8%)
Язык : English
Default : Нет
Forced : Нет
Текст #1
Идентификатор : 4
Формат : UTF-8
Идентификатор кодека : S_TEXT/UTF8
Идентификатор кодека/Информация : UTF-8 Plain Text
Продолжительность : 1 ч. 10 м.
Битрейт : 0 бит/сек
Count of elements : 4
Размер потока : 174 байт (0%)
Заголовок : forced
Язык : Russian
Default : Да
Forced : Нет
Текст #2
Идентификатор : 5
Формат : UTF-8
Идентификатор кодека : S_TEXT/UTF8
Идентификатор кодека/Информация : UTF-8 Plain Text
Продолжительность : 1 ч. 22 м.
Битрейт : 101 бит/сек
Count of elements : 1350
Размер потока : 61,3 Кбайт (0%)
Язык : Russian
Default : Нет
Forced : Нет
Текст #3
Идентификатор : 6
Формат : UTF-8
Идентификатор кодека : S_TEXT/UTF8
Идентификатор кодека/Информация : UTF-8 Plain Text
Продолжительность : 1 ч. 26 м.
Битрейт : 65 бит/сек
Count of elements : 1517
Размер потока : 41,7 Кбайт (0%)
Язык : English
Default : Нет
Forced : Нет
Текст #4
Идентификатор : 7
Формат : UTF-8
Идентификатор кодека : S_TEXT/UTF8
Идентификатор кодека/Информация : UTF-8 Plain Text
Продолжительность : 1 ч. 27 м.
Битрейт : 70 бит/сек
Count of elements : 1653
Размер потока : 45,2 Кбайт (0%)
Заголовок : SDH
Язык : English
Default : Нет
Forced : Нет
Меню
00:00:00.000 : en:Chapter 1
00:05:09.434 : en:Chapter 2
00:12:29.415 : en:Chapter 3
00:18:27.147 : en:Chapter 4
00:18:27.189 : en:Chapter 5
00:25:26.483 : en:Chapter 6
00:31:39.647 : en:Chapter 7
00:37:24.700 : en:Chapter 8
00:43:19.930 : en:Chapter 9
00:52:19.219 : en:Chapter 10
01:01:04.452 : en:Chapter 11
01:07:04.979 : en:Chapter 12
01:14:43.479 : en:Chapter 13
01:19:26.762 : en:Chapter 14
01:19:27.554 : en:Chapter 15
01:23:23.999 : en:Chapter 16





   Похожие торренты   Торрент   Размер 
В этой теме нет новых непрочитанных сообщений. Аномализа / Anomalisa (2015) BDRip-AVC от New-Team | Лицензия

47 | 19

746.32 МБ

В этой теме нет новых непрочитанных сообщений. Аномализа / Anomalisa (2015) BDRip от ExKinoRay | Лицензия

37 | 1

1.46 ГБ

В этой теме нет новых непрочитанных сообщений. Аномализа / Anomalisa (2015) BDRip 720p от ExKinoRay | Лицензия

24 | 4

3.75 ГБ

В этой теме нет новых непрочитанных сообщений. Аномализа / Anomalisa (2015) Blu-Ray CEE | Лицензия

8 | 3

36.88 ГБ

В этой теме нет новых непрочитанных сообщений. Аномализа / Anomalisa (2015) HDRip от Kaztorrents | КПК | Лицензия

3 | 3

409.37 МБ

В этой теме нет новых непрочитанных сообщений. Аномализа / Anomalisa (2015) HDRip от MegaPeer | Лицензия

20 | 1

745.01 МБ

В этой теме нет новых непрочитанных сообщений. Аномализа / Anomalisa (2015) HDRip от MegaPeer | Лицензия

444 | 25

1.45 ГБ




Вы не можете начинать темы
Вы не можете отвечать на сообщения
Вы не можете редактировать свои сообщения
Вы не можете удалять свои сообщения
Вы не можете добавлять вложения

Перейти:  
Для Мосгорсуда, Роскомнадзора и рекламодателей: mosgorsud-torrent[собачка]yandex.ru
 Вход
ppkBB3cker v.2 © 2008-2014 @ PPK
[ Time : 0.675s | 17 Queries | GZIP : Off ]

Торрент трекер RUTOR.IN, Не можете зайти на rutor.org? Какой новый адрес рутор? Какое зеркало рутор? Не работает rutor.org и зеркала? Тогда наш торрент специально для вас. Rutor.in неофициальное зеркало rutor. В случае если у Вас заблокирован rutor или вдруг Вы не можете на него зайти, то Вы без труда сможете скачать бесплатно и без рекламы последние новинки кино, игр, сериалов и прочего у нас, на Rutor.in. Не нужно использовать прокси, чтобы зайти на рутор, достаточно воспользоваться нашим ресурсом. Все новые фильмы, игры, сериалы, книги и музыка за 2013 и 2014 годы через торрент бесплатно. Скачивайте фильмы в хорошем качестве, игры для пк, xbox, playstation без регистрации. У нас вы найдете новые Зарубежные сериалы и Русские сериалы 2013, 2014, 2015 годов. Оставайтесь с нами, качайте любимые фильмы, игры, сериалы, книги и музыку.