img image001 image001 image001 image001 image001 image001 image001 image001 image001 image001 image001 image001 image001 image001 image001

Planets Sun Sun Sun
Статистика раздачи
Автор: PriZraK | Размер: 1.55 ГБ | Добавлен: 29 июл 2016
Раздают: 109    Качают: 12
Скачать торрент
Скачать торрент
Описание торрента

СообщениеДобавлено: 29 июл 2016 

Информация о фильме
Название: Солнечные зайчики
Альтернативное название: Малыши прыгуши
Оригинальное название: Sunny Bunnies
Год выхода: 2015
Страна: Беларусь, Digital Light Studio
Жанр: Мультсериал, детский, комедия, приключения
Продолжительность: 24 х ~ 00:03:40
Перевод: не требуется
Режиссер: Андрей Леденев
Роли озвучивали: Светлана Тимохина, Дмитрий Давидович
О фильме: Ребята, вы еще не знакомы с озорными солнечными зайчиками? Конечно же, кто их не видел? А вот близко вряд ли кто знаком. И мы рады вам их представить. Знакомьтесь – Турбо, близняшки Светик и Ириска, сластена Большой Бу и самый младшенький Кузя. Все они очень веселые и забавные, каждый солнечный зайчик имеет свой цвет. Ириска – синяя, Светик – голубая, Большой Бу – лиловый, Кузя – зеленый, а Турбо – оранжевый. Солнечные зайчики обожают путешествовать. Живут они на Солнце, но как только появляется возможность, они с радостью мчат на Землю, чтобы понежиться на зеленой травке и поплескаться в водичке.
01. Карусель
02. Волшебная палочка
03. Концерт
04. Кто быстрее_
05. Зайчики на Луне
06. Волшебный чемоданчик
07. Светлячки
08. Легкая атлетика
09. Прятки
10. День рождения
11. Кто там_
12. Поймай меня
13. Пойдем кататься!
14. Новый год
15. Рыцарский турнир
16. Заветные желания
17. Большой теннис
18. Мыльные пузыри
19. Цветомешалка
20. Чудо-кисточка
21. Выше всех
22. Жонглер
23. Селфи
24. Храбрый летчик



Доп. информация:
Семпл


Файл
Формат: MKV
Качество: WEB-DLRip-AVC
Видео: MPEG4-AVC, High@L4.1, 720x576 @ 1024x576 (16:9), ~ 2 387 Kbps, 25.000 fps
Звук: 48.0 KHz, AC3 2.0, 192 Kbps
Субтитры: нет
22. Жонглер. AVC-merci-.mkv
Формат : Matroska
Версия формата : Version 2
Размер файла : 66,0 Мбайт
Продолжительность : 3 м. 35 с.
Общий поток : 2573 Кбит/сек
Дата кодирования : UTC 2016-07-26 17:48:50
Программа кодирования : mkvmerge v5.8.0 ('No Sleep / Pillow') built on Sep 2 2012 15:37:04
Библиотека кодирования : libebml v1.2.3 + libmatroska v1.3.0
Видео
Идентификатор : 1
Формат : AVC
Формат/Информация : Advanced Video Codec
Профиль формата : High@L4.1
Параметр CABAC формата : Да
Параметр ReFrames формата : 12 кадров
Идентификатор кодека : V_MPEG4/ISO/AVC
Продолжительность : 3 м. 35 с.
Битрейт : 2387 Кбит/сек
Ширина : 720 пикселей
Высота : 576 пикселей
Соотношение сторон : 16:9
Режим частоты кадров : Постоянный
Частота кадров : 25,000 кадров/сек
Стандарт вещания : PAL
Цветовое пространство : YUV
Субдискретизация насыщенности : 4:2:0
Битовая глубина : 8 бит
Тип развёртки : Прогрессивная
Бит/(Пиксели*Кадры) : 0.230
Размер потока : 59,7 Мбайт (91%)
Библиотека кодирования : x264 core 125 r2208 d9d2288
Настройки программы : cabac=1 / ref=12 / deblock=1:-2:-2 / analyse=0x3:0x133 / me=umh / subme=10 / psy=1 / psy_rd=1.00:0.20 / mixed_ref=1 / me_range=32 / chroma_me=1 / trellis=2 / 8x8dct=1 / cqm=0 / deadzone=21,11 / fast_pskip=0 / chroma_qp_offset=-3 / threads=6 / lookahead_threads=1 / sliced_threads=0 / nr=0 / decimate=0 / interlaced=0 / bluray_compat=0 / constrained_intra=0 / bframes=12 / b_pyramid=2 / b_adapt=2 / b_bias=0 / direct=3 / weightb=1 / open_gop=0 / weightp=2 / keyint=250 / keyint_min=25 / scenecut=40 / intra_refresh=0 / rc_lookahead=40 / rc=2pass / mbtree=0 / bitrate=2387 / ratetol=1.0 / qcomp=0.60 / qpmin=0 / qpmax=69 / qpstep=4 / cplxblur=20.0 / qblur=0.5 / vbv_maxrate=50000 / vbv_bufsize=62500 / nal_hrd=none / ip_ratio=1.40 / pb_ratio=1.30 / aq=2:1.00
Default : Да
Forced : Нет
Цветовой диапазон : Limited
Основные цвета : BT.709
Характеристики трансфера : BT.709
Коэффициенты матрицы : BT.709
Аудио
Идентификатор : 2
Формат : AC-3
Формат/Информация : Audio Coding 3
Расширение режима : CM (complete main)
Параметр Endianness формата : Big
Идентификатор кодека : A_AC3
Продолжительность : 3 м. 35 с.
Вид битрейта : Постоянный
Битрейт : 192 Кбит/сек
Каналы : 2 канала
Расположение каналов : Front: L R
Частота : 48,0 КГц
Частота кадров : 31,250 кадров/сек (1536 spf)
Метод сжатия : С потерями
Размер потока : 4,92 Мбайт (7%)
Default : Да
Forced : Нет


Релиз от:
Автор релиза:



   Похожие торренты   Торрент   Размер 
В этой теме нет новых непрочитанных сообщений. Солнечные зайчики [01-24 из ?] / Sunny Bunnies (2015) WEB-DLRip от ExKinoRay

26 | 2

1.33 ГБ

В этой теме нет новых непрочитанных сообщений. Солнечные зайчики [01-24 из ?] / Sunny Bunnies (2015) WEB-DLRip от ExKinoRay

28 | 6

1.33 ГБ

В этой теме нет новых непрочитанных сообщений. Солнечные зайчики / Sunny Bunnies [s01] (2015) WEB-DLRip 1080p от ExKinoRay

84 | 5

1.96 ГБ

В этой теме нет новых непрочитанных сообщений. Солнечные зайчики / Sunny Bunnies [s01] (2015) WEB-DLRip 720p от ExKinoRay

52 | 4

1.13 ГБ

В этой теме нет новых непрочитанных сообщений. Солнечные / Sunny (2011) DVDRip | L2

13 | 3

1.84 ГБ

В этой теме нет новых непрочитанных сообщений. Do You Like Horny Bunnies? 2 (2004) PC

38 | 3

538.58 МБ

В этой теме нет новых непрочитанных сообщений. В Филадельфии всегда солнечно / It's Always Sunny in Philadelphia [S12] (2017) WEB-DLRip | LostFilm

44 | 9

3.13 ГБ




Вы не можете начинать темы
Вы не можете отвечать на сообщения
Вы не можете редактировать свои сообщения
Вы не можете удалять свои сообщения
Вы не можете добавлять вложения

Перейти:  
Для Мосгорсуда, Роскомнадзора и рекламодателей: mosgorsud-torrent[собачка]yandex.ru
 Вход
ppkBB3cker v.2 © 2008-2014 @ PPK
[ Time : 0.024s | 17 Queries | GZIP : Off ]

cron