img image001 image001 image001 image001 image001 image001 image001 image001 image001 image001 image001 image001 image001 image001 image001

Planets Sun Sun Sun
Статистика раздачи
Автор: PriZraK | Размер: 3.49 ГБ | Добавлен: 29 июл 2016
Раздают: 141    Качают: 2
Скачать торрент
Скачать торрент
Описание торрента

СообщениеДобавлено: 29 июл 2016 

Информация о фильме
Название: Бэтмен: Убийственная шутка
Оригинальное название: Batman: The Killing Joke
Год выхода: 2016
Жанр: Мультфильм, боевик, триллер, драма, криминал
Режиссер: Сэм Лью
В ролях: Марк Хэмилл, Кари Уолгрен, Тара Стронг, Нолан Норт, Джон Ди Маджио, Кевин Конрой, Рэй Уайз, Робин Аткин Даунс, Мори Стерлинг, Фред Татаскьор
О фильме:
Бэтмен начинает охоту на сбежавшего короля преступного мира - Джокера. Джокер угрожает семье Гордона, показывая всю дьявольскую сущность в отражениии своего безумия...

Страна: США
Студия: Warner Bros. Pictures, Answer Studio
Продолжительность: 01:16:52
Перевод: Любительский многоголосый (закадровый) | GoASound
Файл
Кодек: MPEG-4
Качество: BDRip 720p
Видео: 1280x720, 5675 Kbit/s, 23.976 fps
Звук:
Аудио #01: 48 kHz, AC3, 2.0, 192 Kbps | Любительский многоголосый (закадровый) | GoASound |
Аудио #02: 48 kHz, AC3, 5.1, 640 kbps | Оригинал |
Субтитры: Русские, английские

General
Unique ID : 185410678083443013627081119140241662814 (0x8B7CCC359BD69D82BA338C6B3DA2E35E)
Complete name : G:VideoНовая папка (2)Batman.The.Killing.Joke.2016.MVO.BDRip.720p.ExKinoRay.mkv
Format : Matroska
Format version : Version 4 / Version 2
File size : 3.49 GiB
Duration : 1h 16mn
Overall bit rate : 6 509 Kbps
Movie name : Batman.The.Killing.Joke.2016.MVO.BDRip.720p.ExKinoRay
Encoded date : UTC 2016-07-28 09:27:12
Writing application : mkvmerge v8.3.0 ('Over the Horizon') 64bit
Writing library : libebml v1.3.1 + libmatroska v1.4.2
Video
ID : 1
Format : AVC
Format/Info : Advanced Video Codec
Format profile : High@L4.1
Format settings, CABAC : Yes
Format settings, ReFrames : 9 frames
Codec ID : V_MPEG4/ISO/AVC
Duration : 1h 16mn
Bit rate : 5 675 Kbps
Width : 1 280 pixels
Height : 720 pixels
Display aspect ratio : 16:9
Frame rate mode : Constant
Frame rate : 23.976 (24000/1001) fps
Color space : YUV
Chroma subsampling : 4:2:0
Bit depth : 8 bits
Scan type : Progressive
Bits/(Pixel*Frame) : 0.257
Stream size : 3.04 GiB (87%)
Writing library : x264 core 148 r2705+54 9f484c1 t_mod_Custom [8-bit@all X86_64]
Encoding settings : cabac=1 / ref=9 / deblock=1:-3:-3 / analyse=0x3:0x133 / me=umh / subme=10 / psy=1 / fade_compensate=0.00 / psy_rd=0.80:0.00 / mixed_ref=1 / me_range=32 / chroma_me=1 / trellis=2 / 8x8dct=1 / cqm=0 / deadzone=21,11 / fast_pskip=0 / chroma_qp_offset=-2 / threads=8 / lookahead_threads=1 / sliced_threads=0 / nr=0 / decimate=0 / interlaced=0 / bluray_compat=0 / constrained_intra=0 / fgo=0 / bframes=8 / b_pyramid=2 / b_adapt=2 / b_bias=0 / direct=3 / weightb=1 / open_gop=0 / weightp=2 / keyint=250 / keyint_min=23 / scenecut=40 / intra_refresh=0 / rc_lookahead=150 / rc=crf / mbtree=0 / crf=15.9000 / qcomp=0.60 / qpmin=0:0:0 / qpmax=69:69:69 / qpstep=4 / vbv_maxrate=50000 / vbv_bufsize=62500 / crf_max=0.0 / nal_hrd=none / filler=0 / ip_ratio=1.30 / pb_ratio=1.20 / aq=3:0.95 / aq-sensitivity=10.00 / aq-factor=1.00:1.00:1.00 / aq2=0 / aq3=0
Language : English
Default : Yes
Forced : No
Color range : Limited
Matrix coefficients : BT.709
Audio #1
ID : 2
Format : E-AC-3
Format/Info : Audio Coding 3
Format settings, Endianness : Big
Codec ID : A_EAC3
Duration : 1h 16mn
Bit rate mode : Constant
Bit rate : 192 Kbps
Channel(s) : 2 channels
Channel positions : Front: L R
Sampling rate : 48.0 KHz
Frame rate : 187.500 fps (256 spf)
Compression mode : Lossy
Stream size : 105 MiB (3%)
Title : MVO [GoASound]
Language : Russian
Default : Yes
Forced : No
Audio #2
ID : 3
Format : AC-3
Format/Info : Audio Coding 3
Mode extension : CM (complete main)
Format settings, Endianness : Big
Codec ID : A_AC3
Duration : 1h 16mn
Bit rate mode : Constant
Bit rate : 640 Kbps
Channel(s) : 6 channels
Channel positions : Front: L C R, Side: L R, LFE
Sampling rate : 48.0 KHz
Frame rate : 31.250 fps (1536 spf)
Compression mode : Lossy
Stream size : 351 MiB (10%)
Title : Original
Language : English
Default : No
Forced : No
Text #1
ID : 4
Format : UTF-8
Codec ID : S_TEXT/UTF8
Codec ID/Info : UTF-8 Plain Text
Duration : 1h 13mn
Bit rate : 101 bps
Count of elements : 995
Stream size : 54.7 KiB (0%)
Title : Full
Language : Russian
Default : No
Forced : No
Text #2
ID : 5
Format : UTF-8
Codec ID : S_TEXT/UTF8
Codec ID/Info : UTF-8 Plain Text
Duration : 1h 13mn
Bit rate : 61 bps
Count of elements : 998
Stream size : 32.9 KiB (0%)
Title : Full
Language : English
Default : No
Forced : No
Text #3
ID : 6
Format : UTF-8
Codec ID : S_TEXT/UTF8
Codec ID/Info : UTF-8 Plain Text
Duration : 1h 16mn
Bit rate : 64 bps
Count of elements : 1157
Stream size : 36.0 KiB (0%)
Title : SDH
Language : English
Default : No
Forced : No
Menu
00:00:00.000 : en:Chapter 1
00:10:06.731 : en:Chapter 2
00:20:30.646 : en:Chapter 3
00:30:08.265 : en:Chapter 4
00:41:23.648 : en:Chapter 5
00:51:27.334 : en:Chapter 6
01:02:21.529 : en:Chapter 7
01:11:51.891 : en:Chapter 8

Релиз от: Автор релиза:



   Похожие торренты   Торрент   Размер 
В этой теме нет новых непрочитанных сообщений. Бэтмен: Убийственная шутка / Batman: The Killing Joke (2016) BDRip 720p от ExKinoRay | P

146 | 8

3.49 ГБ

В этой теме нет новых непрочитанных сообщений. Бэтмен: Убийственная шутка / Batman: The Killing Joke (2016) BDRip от ExKinoRay | P

3056 | 197

1.46 ГБ

В этой теме нет новых непрочитанных сообщений. Бэтмен: Убийственная шутка / Batman: The Killing Joke (2016) BDRip 1080p от ExKinoRay | P

88 | 5

5.81 ГБ

В этой теме нет новых непрочитанных сообщений. Бэтмен: Убийственная шутка / Batman: The Killing Joke (2016) BDRip 1080p от ExKinoRay | L

94 | 5

5.81 ГБ

В этой теме нет новых непрочитанных сообщений. Бэтмен: Убийственная шутка / Batman: The Killing Joke (2016) BDRip 720p | L

239 | 8

3.2 ГБ

В этой теме нет новых непрочитанных сообщений. Бэтмен: Убийственная шутка / Batman: The Killing Joke (2016) BDRemux 1080p от ExKinoRay | L

73 | 3

9.19 ГБ

В этой теме нет новых непрочитанных сообщений. Бэтмен: Убийственная шутка / Batman: The Killing Joke (2016) BDRemux 1080p от ExKinoRay | P

77 | 4

9.19 ГБ




Вы не можете начинать темы
Вы не можете отвечать на сообщения
Вы не можете редактировать свои сообщения
Вы не можете удалять свои сообщения
Вы не можете добавлять вложения

Перейти:  
Для Мосгорсуда, Роскомнадзора и рекламодателей: mosgorsud-torrent[собачка]yandex.ru
 Вход
ppkBB3cker v.2 © 2008-2014 @ PPK
[ Time : 0.022s | 17 Queries | GZIP : Off ]

Торрент трекер RUTOR.IN, Не можете зайти на rutor.org? Какой новый адрес рутор? Какое зеркало рутор? Не работает rutor.org и зеркала? Тогда наш торрент специально для вас. Rutor.in неофициальное зеркало rutor. В случае если у Вас заблокирован rutor или вдруг Вы не можете на него зайти, то Вы без труда сможете скачать бесплатно и без рекламы последние новинки кино, игр, сериалов и прочего у нас, на Rutor.in. Не нужно использовать прокси, чтобы зайти на рутор, достаточно воспользоваться нашим ресурсом. Все новые фильмы, игры, сериалы, книги и музыка за 2013 и 2014 годы через торрент бесплатно. Скачивайте фильмы в хорошем качестве, игры для пк, xbox, playstation без регистрации. У нас вы найдете новые Зарубежные сериалы и Русские сериалы 2013, 2014, 2015 годов. Оставайтесь с нами, качайте любимые фильмы, игры, сериалы, книги и музыку.