img image001 image001 image001 image001 image001 image001 image001 image001 image001 image001 image001 image001 image001 image001 image001

Planets Sun Sun Sun
Статистика раздачи
Автор: Nickolas3434 | Размер: 1.33 ГБ | Добавлен: 31 июл 2016
Раздают: 26    Качают: 2
Скачать торрент
Скачать торрент
Описание торрента

СообщениеДобавлено: 31 июл 2016 

Информация о фильме
Название: Солнечные зайчики
Альтернативное название: Малыши прыгуши
Оригинальное название: Sunny Bunnies
Год выхода: 2015
Страна: Беларусь, Digital Light Studio
Жанр: Мультсериал, детский, комедия, приключения
Продолжительность: 24 х ~ 00:03:40
Перевод: не требуется
Режиссер: Андрей Леденев
Роли озвучивали: Светлана Тимохина, Дмитрий Давидович
О фильме: Ребята, вы еще не знакомы с озорными солнечными зайчиками? Конечно же, кто их не видел? А вот близко вряд ли кто знаком. И мы рады вам их представить. Знакомьтесь – Турбо, близняшки Светик и Ириска, сластена Большой Бу и самый младшенький Кузя. Все они очень веселые и забавные, каждый солнечный зайчик имеет свой цвет. Ириска – синяя, Светик – голубая, Большой Бу – лиловый, Кузя – зеленый, а Турбо – оранжевый. Солнечные зайчики обожают путешествовать. Живут они на Солнце, но как только появляется возможность, они с радостью мчат на Землю, чтобы понежиться на зеленой травке и поплескаться в водичке.
01. Карусель
02. Волшебная палочка
03. Концерт
04. Кто быстрее_
05. Зайчики на Луне
06. Волшебный чемоданчик
07. Светлячки
08. Легкая атлетика
09. Прятки
10. День рождения
11. Кто там_
12. Поймай меня
13. Пойдем кататься!
14. Новый год
15. Рыцарский турнир
16. Заветные желания
17. Большой теннис
18. Мыльные пузыри
19. Цветомешалка
20. Чудо-кисточка
21. Выше всех
22. Жонглер
23. Селфи
24. Храбрый летчик



Доп. информация:
Семпл


Файл
Формат: MKV
Качество: WEB-DLRip
Видео: XviD 65, 720x400 (16:9), ~ 2 002 Kbps, 25.000 fps
Звук: 48.0 KHz, AC3 2.0, 192 Kbps
Субтитры: нет
14. Новый год. XviD-merci-.avi
Формат : AVI
Формат/Информация : Audio Video Interleave
Размер файла : 57,3 Мбайт
Продолжительность : 3 м. 38 с.
Общий поток : 2204 Кбит/сек
Программа кодирования : VirtualDubMod 1.5.10.3 | www.virtualdub-fr.org || (build 2550/release)
Библиотека кодирования : VirtualDubMod build 2550/release
Видео
Идентификатор : 0
Формат : MPEG-4 Visual
Профиль формата : Advanced Simple@L5
Параметр BVOP формата : 2
Параметр QPel формата : Нет
Параметр GMC формата : Без точки перехода
Параметр матрицы формата : Default (MPEG)
Идентификатор кодека : XVID
Идентификатор кодека/Подсказка : XviD
Продолжительность : 3 м. 38 с.
Битрейт : 2002 Кбит/сек
Ширина : 720 пикселей
Высота : 400 пикселей
Соотношение сторон : 16:9
Частота кадров : 25,000 кадров/сек
Цветовое пространство : YUV
Субдискретизация насыщенности : 4:2:0
Битовая глубина : 8 бит
Тип развёртки : Прогрессивная
Метод сжатия : С потерями
Бит/(Пиксели*Кадры) : 0.278
Размер потока : 52,0 Мбайт (91%)
Библиотека кодирования : XviD 65
Аудио
Идентификатор : 1
Формат : AC-3
Формат/Информация : Audio Coding 3
Расширение режима : CM (complete main)
Параметр Endianness формата : Big
Идентификатор кодека : 2000
Продолжительность : 3 м. 38 с.
Вид битрейта : Постоянный
Битрейт : 192 Кбит/сек
Каналы : 2 канала
Расположение каналов : Front: L R
Частота : 48,0 КГц
Частота кадров : 31,250 кадров/сек (1536 spf)
Метод сжатия : С потерями
Размер потока : 4,99 Мбайт (9%)
Выравнивание : Разделение по промежуткам
Продолжительность промежутка : 40 мс. (1,00 видеокадр)
Время предзагрузки промежутка : 500 мс.


Релиз от:
Автор релиза:



   Похожие торренты   Торрент   Размер 
В этой теме нет новых непрочитанных сообщений. Солнечные зайчики [01-24 из ?] / Sunny Bunnies (2015) WEB-DLRip от ExKinoRay

28 | 6

1.33 ГБ

В этой теме нет новых непрочитанных сообщений. Солнечные зайчики [01-24 из ?] / Sunny Bunnies (2015) WEB-DLRip-AVC от ExKinoRay

109 | 12

1.55 ГБ

В этой теме нет новых непрочитанных сообщений. Солнечные зайчики / Sunny Bunnies [s01] (2015) WEB-DLRip 720p от ExKinoRay

39 | 0

1.13 ГБ

В этой теме нет новых непрочитанных сообщений. Солнечные зайчики / Sunny Bunnies [s01] (2015) WEB-DLRip 1080p от ExKinoRay

72 | 8

1.96 ГБ

В этой теме нет новых непрочитанных сообщений. Солнечные / Sunny (2011) DVDRip | L2

13 | 3

1.84 ГБ

В этой теме нет новых непрочитанных сообщений. В Филадельфии всегда солнечно / It's Always Sunny in Philadelphia [S08] (2012) WEB-DLRip | LostFilm

1 | 3

3.25 ГБ

В этой теме нет новых непрочитанных сообщений. В Филадельфии всегда солнечно / It's Always Sunny in Philadelphia [S06] (2010) WEB-DLRip | P LostFilm

7 | 3

4.2 ГБ




Вы не можете начинать темы
Вы не можете отвечать на сообщения
Вы не можете редактировать свои сообщения
Вы не можете удалять свои сообщения
Вы не можете добавлять вложения

Перейти:  
Для Мосгорсуда, Роскомнадзора и рекламодателей: mosgorsud-torrent[собачка]yandex.ru
 Вход
ppkBB3cker v.2 © 2008-2014 @ PPK
[ Time : 0.037s | 16 Queries | GZIP : Off ]

Торрент трекер RUTOR.IN, Не можете зайти на rutor.org? Какой новый адрес рутор? Какое зеркало рутор? Не работает rutor.org и зеркала? Тогда наш торрент специально для вас. Rutor.in неофициальное зеркало rutor. В случае если у Вас заблокирован rutor или вдруг Вы не можете на него зайти, то Вы без труда сможете скачать бесплатно и без рекламы последние новинки кино, игр, сериалов и прочего у нас, на Rutor.in. Не нужно использовать прокси, чтобы зайти на рутор, достаточно воспользоваться нашим ресурсом. Все новые фильмы, игры, сериалы, книги и музыка за 2013 и 2014 годы через торрент бесплатно. Скачивайте фильмы в хорошем качестве, игры для пк, xbox, playstation без регистрации. У нас вы найдете новые Зарубежные сериалы и Русские сериалы 2013, 2014, 2015 годов. Оставайтесь с нами, качайте любимые фильмы, игры, сериалы, книги и музыку.
cron