img image001 image001 image001 image001 image001 image001 image001 image001 image001 image001 image001 image001 image001 image001 image001

Planets Sun Sun Sun
Статистика раздачи
Автор: PriZraK | Размер: 6.59 ГБ | Добавлен: 02 авг 2016
Раздают: 57    Качают: 58
Скачать торрент
Скачать торрент
Описание торрента

СообщениеДобавлено: 02 авг 2016 

Информация о фильме
Название: Вселенная Стивен
Оригинальное название: Steven Universe
Год выхода: 2013-2015
Страна: США
Жанр: Мультсериал, фэнтези, боевик, комедия, семейный
Продолжительность: 52 х ~ 00:11:30
Перевод: Профессиональный дублированный (студия "Пифагор")
Режиссеры: Йен Джонс-Кварти, Джозеф Д. Джонстон, Кэт Моррис
Роли озвучивали: Зак Каллисон, Диди Мано, Михаэлла Дитц, Эстелль, Том Шарплинг, Мэттью Мой, Кейт Микуччи, Шелби Рабара, Грэйс Ролек. Захари Стил, ...
Роли дублировали: Наталья Терешкова, Дарья Фролова, Татьяна Весёлкина, Лариса Брохман, Денис Некрасов, ...
О фильме: Главный герой истории – мальчик по имени Стивен. Парень имеет не то чтобы крупные размеры, он просто-напросто толстенький мальчик. И случилась с ним однажды непредвиденная история. Стивен оказался участником группы интергалактических девушек, которые именовали себя воительницами. Каждая девушка олицетворяла в себе определённого рода камень. Этот камень находился внутри у девушки, и при необходимости она могла воспользоваться его могущественной силой. Все камни были разными: гранат, аметист, жемчуг, так и способности, которыми они наделяли девушку, изрядно отличались.
1 сезон (27 июля 2013 - 19 марта 2015)
01. Вспышка самоцвета / Gem Glow
02. Светолазерная пушка / Laser Light Cannon
03. Рюкзак-Чизбургер / Cheeseburger Backpack
04. Совместный завтрак / Together Breakfast
05. Жарик / Frybo
06. Котопальцы / Cat Fingers
07. Товарищи по шару / Bubble Buddies
08. Серьёзный Стивен / Serious Steven
09. Тигр-Миллионер / Tiger Millionare
10. Лев для Стивена / Steven's Lion
11. Игромания / Arcade Mania
12. Великанша / Giant Woman
13. Сплошные Дни Рождения / So Many Birthdays
14. Ларс и клевая команда / Lars and the Cool Kids
15. Обмен / Onion Trade
16. Стивен-Мастер Клинка / Steven the Sword Fighter
17. Лев Возвращается / Lion 2: The Movie
18. Пляжная Вечеринка / Beach Party
19. Комната Розы / Rose's Room
20. Стивен-тренер / Coach Steven
21. Скверная шутка / Joking Victim
22. Стивены и Стивен / Steven and the Stevens
23. Мой друг монстр / Monster Buddies
24. Непрямой поцелуй / An Indirect Kiss
25. Зеркало-самоцвет / Mirror Gem
26. Самоцвет в океане / Ocean Gem
27. В Гостях Хорошо / House Guest
28. Космическая гонка / Space Race
29. Тайная группа / Secret Team
30. Приключения на острове / Island Adventure
31. Храним странности Прибрежья / Keep Beach City Weird
32. Совместный ужин / Fusion Cuisine
33. Вселенная Гранат / Garnet's Universe
34. Арбузный Стивен / Watermelon Steven
35. Лев 3. Теперь на видео / Lion 3: Straight to Video
36. Тайна Гиперпространства / Warp Tour
37. Совместное одиночество / Alone Together
38. Испытание / The Test
39. Предвидение / Future Vision
40. В бегах / On the Run
41. Клуб Любителей Ужасов / Horror Club
42. Зимний прогноз / Winter Forecast
43. Предел Вместимости / Maximum Capacity
44. Нашествие с небес / Marble Madness
45. Ножны Розы / Rose's Scabbard
46. Открытая книга / Open Book
47. Футболковый клуб
48. История на ночь
49. Послание / The Message
50. Сила Политики / Political Power
51. Возвращение / The Return
52. Побег из заточения / JailBreak



Доп. информация:
Семпл


Файл
Формат: AVI
Качество: WEB-DLRip
Видео: 720x400 (1.80:1), 24 fps, XviD build 65 ~1533 kbps avg, 0.22 bit/pixel
Аудио: 48 kHz, AC3 Dolby Digital, 2/0 (L,R) ch, ~192.00 kbps avg
Субтитры: нет
20. Стивен-тренер. XviD-merci-.avi
Формат : AVI
Формат/Информация : Audio Video Interleave
Размер файла : 143 Мбайт
Продолжительность : 11 м.
Общий поток : 1735 Кбит/сек
Программа кодирования : VirtualDubMod 1.5.10.3 | www.virtualdub-fr.org || (build 2550/release)
Библиотека кодирования : VirtualDubMod build 2550/release
Видео
Идентификатор : 0
Формат : MPEG-4 Visual
Профиль формата : Advanced Simple@L5
Параметр BVOP формата : 1
Параметр QPel формата : Нет
Параметр GMC формата : Без точки перехода
Параметр матрицы формата : Default (MPEG)
Идентификатор кодека : XVID
Идентификатор кодека/Подсказка : XviD
Продолжительность : 11 м.
Битрейт : 1533 Кбит/сек
Ширина : 720 пикселей
Высота : 400 пикселей
Соотношение сторон : 16:9
Частота кадров : 24,000 кадра/сек
Цветовое пространство : YUV
Субдискретизация насыщенности : 4:2:0
Битовая глубина : 8 бит
Тип развёртки : Прогрессивная
Метод сжатия : С потерями
Бит/(Пиксели*Кадры) : 0.222
Размер потока : 126 Мбайт (88%)
Библиотека кодирования : XviD 65
Аудио
Идентификатор : 1
Формат : AC-3
Формат/Информация : Audio Coding 3
Расширение режима : CM (complete main)
Параметр Endianness формата : Big
Идентификатор кодека : 2000
Продолжительность : 11 м.
Вид битрейта : Постоянный
Битрейт : 192 Кбит/сек
Каналы : 2 канала
Расположение каналов : Front: L R
Частота : 48,0 КГц
Частота кадров : 31,250 кадров/сек (1536 spf)
Метод сжатия : С потерями
Размер потока : 15,8 Мбайт (11%)
Выравнивание : Разделение по промежуткам
Продолжительность промежутка : 42 мс. (1,00 видеокадр)
Время предзагрузки промежутка : 500 мс.


Релиз от:
Автор релиза:



   Похожие торренты   Торрент   Размер 
В этой теме нет новых непрочитанных сообщений. Вселенная Стивена / Steven Universe [01x01-26 из 49] (2013-2014) WEB-DLRip от New-Team | D

71 | 18

3.68 ГБ

В этой теме нет новых непрочитанных сообщений. Вселенная Стивена / Steven Universe [01x01-13 из 13] (2013) SATRip от New-Team | D

54 | 7

2.46 ГБ

В этой теме нет новых непрочитанных сообщений. Вселенная Стивена Хокинга-Инопланетяне / Stephen Hawking Universe - Alien (2010) BDRip 720p

50 | 4

1.21 ГБ

В этой теме нет новых непрочитанных сообщений. Вселенная Стивена Хокинга: История всего / Discovery. Stephen Hawking. Universe (2010) HDTVRip от GeneralFilm

132 | 9

1.12 ГБ

В этой теме нет новых непрочитанных сообщений. Вселенная Стивена Хокинга: История всего / Discovery. Stephen Hawking. Universe (2010) HDTV 1080i от GeneralFilm

В этой теме нет новых непрочитанных сообщений. Лунный свет 2: Вселенная Света / Lichtmond 2: Universe of Light (2012) BDRip-AVC от ExKinoRay

41 | 4

1.05 ГБ

В этой теме нет новых непрочитанных сообщений. Известная Вселенная: С космической скоростью / Known Universe: Speeding Through the Universe (2009) SATRip

0 | 17

551.62 МБ




Вы не можете начинать темы
Вы не можете отвечать на сообщения
Вы не можете редактировать свои сообщения
Вы не можете удалять свои сообщения
Вы не можете добавлять вложения

Перейти:  
Для Мосгорсуда, Роскомнадзора и рекламодателей: mosgorsud-torrent[собачка]yandex.ru
 Вход
ppkBB3cker v.2 © 2008-2014 @ PPK
[ Time : 0.051s | 15 Queries | GZIP : Off ]
CGP output time : 0.108s | 7 Queries | GZIP : Off

Торрент трекер RUTOR.IN, Не можете зайти на rutor.org? Какой новый адрес рутор? Какое зеркало рутор? Не работает rutor.org и зеркала? Тогда наш торрент специально для вас. Rutor.in неофициальное зеркало rutor. В случае если у Вас заблокирован rutor или вдруг Вы не можете на него зайти, то Вы без труда сможете скачать бесплатно и без рекламы последние новинки кино, игр, сериалов и прочего у нас, на Rutor.in. Не нужно использовать прокси, чтобы зайти на рутор, достаточно воспользоваться нашим ресурсом. Все новые фильмы, игры, сериалы, книги и музыка за 2013 и 2014 годы через торрент бесплатно. Скачивайте фильмы в хорошем качестве, игры для пк, xbox, playstation без регистрации. У нас вы найдете новые Зарубежные сериалы и Русские сериалы 2013, 2014, 2015 годов. Оставайтесь с нами, качайте любимые фильмы, игры, сериалы, книги и музыку.