img image001 image001 image001 image001 image001 image001 image001 image001 image001 image001 image001 image001 image001 image001 image001

Planets Sun Sun Sun
Статистика раздачи
Автор: PriZraK | Размер: 11.62 ГБ | Добавлен: 02 авг 2016
Раздают: 274    Качают: 51
Скачать торрент
Скачать торрент
Описание торрента

СообщениеДобавлено: 02 авг 2016 


Angry Birds в кино 3D
The Angry Birds Movie 3D

«Что такие сердитые?»

Год выпуска: 2016
Страна: Финляндия, США, Columbia Pictures, LStar Capital, Rovio Entertainment
Жанр: Мультфильм, боевик, комедия, семейный
Продолжительность: 01:37:13
Перевод: Профессиональный (полное дублирование) [iTunes]
Режиссер: Клэй Кэйтис / Clay Kaytis, Фергал Рейли / Fergal Reilly
В ролях: Джейсон Судейкис (Red), Джош Гад (Chuck), Дэнни МакБрайд (Bomb), Майя Рудольф (Matilda), Билл Хейдер (Leonard), Питер Динклэйдж (Mighty Eagle), Шон Пенн (Terence), Кигэн-Майкл Ки (Judge Peckinpah), Кейт МакКиннон (Stella / Eva the Birthday Mom), Тони Хейл (Ross / Cyrus / Mime)
Описание:
Из-за своего буйного нрава Ред постоянно попадает в различные передряги. После очередного фонтана агрессии местный суд приговаривает его к бессрочному посещению курсов управления гневом. Между делом, на птичий остров приплывают зеленые свиньи и обманом выкрадывают у птичек все их яйца. Ред и его друзья отправляются на поиски легендарного Могучего Орла, чтобы заручиться его поддержкой и вернуть похищенное.
Рейтинг:

Качество: BDRip
Формат 3D: Half OverUnder / Горизонтальная анаморфная стереопара
Порядок ракурсов: левый ракурс первый
Формат: mkv
Язык субтитров: Русский (форсированные)
Вид субтитров: Вшитые отключаемые / Отдельным файлом
Видео: AVC/H.264, 1920x1080, 15.5 Мбит/сек
Аудио 1: AC3 5.1 384 Кбит/сек - Русский
Аудио 2: AC3 5.1 640 Кбит/сек - Английский
General
Unique ID : 193192440316574137636017882308170216582 (0x915782B5998E08F4B8815240B04FF486)
Complete name : C:ANGRY_BIRDS_MOVIE_3DThe.Angry.Birds.Movie.2016.1080p.3D.BluRay.Half-SBS.x264..AC3.itunes-by_stereotraker.mkv
Format : Matroska
Format version : Version 4 / Version 2
File size : 11.6 GiB
Duration : 1 h 37 min
Overall bit rate : 17.1 Mb/s
Movie name : The.Angry.Birds.Movie.2016.1080p.3D.BluRay.Half-SBS.x264.AC3.itunes-by_stereotraker
Encoded date : UTC 2016-08-01 10:15:23
Writing application : mkvmerge v7.5.0 ('Glass Culture') 32bit built on Jan 4 2015 16:37:25
Writing library : libebml v1.3.1 + libmatroska v1.4.2
Cover : Yes
Attachments : small_cover.jpg / small_cover_land.jpg / cover.jpg / cover_land.jpg
Video
ID : 4
Format : AVC
Format/Info : Advanced Video Codec
Format profile : High@L4.1
Format settings, CABAC : Yes
Format settings, ReFrames : 2 frames
Codec ID : V_MPEG4/ISO/AVC
Duration : 1 h 37 min
Bit rate : 15.5 Mb/s
Width : 1 920 pixels
Height : 1 080 pixels
Display aspect ratio : 16:9
Frame rate mode : Constant
Frame rate : 23.976 (24000/1001) FPS
Color space : YUV
Chroma subsampling : 4:2:0
Bit depth : 8 bits
Scan type : Progressive
Bits/(Pixel*Frame) : 0.312
Stream size : 10.5 GiB (90%)
Writing library : x264 core 142
Encoding settings : cabac=1 / ref=1 / deblock=1:-1:-1 / analyse=0x3:0 / me=hex / subme=5 / psy=0 / mixed_ref=0 / me_range=16 / chroma_me=1 / trellis=0 / 8x8dct=1 / cqm=0 / deadzone=21,11 / fast_pskip=0 / chroma_qp_offset=0 / threads=8 / lookahead_threads=2 / sliced_threads=0 / nr=0 / decimate=1 / interlaced=0 / bluray_compat=0 / constrained_intra=0 / bframes=2 / b_pyramid=0 / b_adapt=1 / b_bias=0 / direct=1 / weightb=0 / open_gop=0 / weightp=0 / keyint=24 / keyint_min=13 / scenecut=40 / intra_refresh=0 / rc=abr / mbtree=0 / bitrate=15500 / ratetol=1.0 / qcomp=0.60 / qpmin=0 / qpmax=69 / qpstep=4 / ip_ratio=1.40 / pb_ratio=1.30 / aq=1:1.00
Language : English
Default : Yes
Forced : No
Color range : Limited
Color primaries : BT.709
Transfer characteristics : BT.709
Matrix coefficients : BT.709
Audio #1
ID : 1
Format : AC-3
Format/Info : Audio Coding 3
Mode extension : CM (complete main)
Format settings, Endianness : Big
Codec ID : A_AC3
Duration : 1 h 37 min
Bit rate mode : Constant
Bit rate : 384 kb/s
Channel(s) : 6 channels
Channel positions : Front: L C R, Side: L R, LFE
Sampling rate : 48.0 kHz
Frame rate : 31.250 FPS (1536 spf)
Compression mode : Lossy
Stream size : 267 MiB (2%)
Title : Rus
Language : Russian
Default : Yes
Forced : No
Audio #2
ID : 2
Format : AC-3
Format/Info : Audio Coding 3
Mode extension : CM (complete main)
Format settings, Endianness : Big
Codec ID : A_AC3
Duration : 1 h 37 min
Bit rate mode : Constant
Bit rate : 640 kb/s
Channel(s) : 6 channels
Channel positions : Front: L C R, Side: L R, LFE
Sampling rate : 48.0 kHz
Frame rate : 31.250 FPS (1536 spf)
Compression mode : Lossy
Stream size : 445 MiB (4%)
Title : eng
Language : English
Default : No
Forced : No
Text
ID : 3
Format : UTF-8
Codec ID : S_TEXT/UTF8
Codec ID/Info : UTF-8 Plain Text
Duration : 1 h 25 min
Bit rate : 2 b/s
Count of elements : 54
Stream size : 1.71 KiB (0%)
Language : Russian
Default : No
Forced : No
Menu
00:00:00.000 : en:(01)00:00:00:000
00:07:05.091 : en:(02)00:07:05:091
00:13:38.108 : en:(03)00:13:38:108
00:20:22.638 : en:(04)00:20:22:638
00:25:38.620 : en:(05)00:25:38:620
00:32:57.392 : en:(06)00:32:57:392
00:38:34.812 : en:(07)00:38:34:812
00:41:36.327 : en:(08)00:41:36:327
00:47:12.955 : en:(09)00:47:12:955
00:52:04.287 : en:(10)00:52:04:287
00:56:07.697 : en:(11)00:56:07:697
00:59:08.711 : en:(12)00:59:08:711
01:03:43.319 : en:(13)01:03:43:319
01:11:45.801 : en:(14)01:11:45:801
01:18:55.522 : en:(15)01:18:55:522
01:23:54.821 : en:(16)01:23:54:821




   Похожие торренты   Торрент   Размер 
В этой теме нет новых непрочитанных сообщений. Angry Birds в кино / Angry Birds (2016) BDRip 1080p | 3D-Video | HSBS | Лицензия

23 | 1

11.42 ГБ

В этой теме нет новых непрочитанных сообщений. Angry Birds в кино / The Angry Birds Movie (2016) BDRip 1080p от Ash61 | 3D-Video | halfOU | iTunes

0 | 0

11.64 ГБ

В этой теме нет новых непрочитанных сообщений. Angry Birds в кино / The Angry Birds Movie (2016) BDRip 1080p от Ash61 | 3D-Video | halfOU | iTunes

107 | 47

11.17 ГБ

В этой теме нет новых непрочитанных сообщений. Angry Birds в кино / The Angry Birds Movie (2016) BDRip 1080p от ExKinoRay | iTunes

993 | 70

8.41 ГБ

В этой теме нет новых непрочитанных сообщений. Angry Birds в кино / The Angry Birds Movie (2016) BDRip 1080p | iTunes

796 | 42

10.45 ГБ

В этой теме нет новых непрочитанных сообщений. Angry Birds в кино / The Angry Birds Movie (2016) BDRip 1080p | iTunes

6050 | 422

5.73 ГБ

В этой теме нет новых непрочитанных сообщений. Angry Birds в кино / The Angry Birds Movie (2016) BDRemux 1080p от ExKinoRay | iTunes

307 | 40

18.83 ГБ




Вы не можете начинать темы
Вы не можете отвечать на сообщения
Вы не можете редактировать свои сообщения
Вы не можете удалять свои сообщения
Вы не можете добавлять вложения

Перейти:  
Для Мосгорсуда, Роскомнадзора и рекламодателей: mosgorsud-torrent[собачка]yandex.ru
 Вход
ppkBB3cker v.2 © 2008-2014 @ PPK
[ Time : 0.111s | 15 Queries | GZIP : Off ]

Торрент трекер RUTOR.IN, Не можете зайти на rutor.org? Какой новый адрес рутор? Какое зеркало рутор? Не работает rutor.org и зеркала? Тогда наш торрент специально для вас. Rutor.in неофициальное зеркало rutor. В случае если у Вас заблокирован rutor или вдруг Вы не можете на него зайти, то Вы без труда сможете скачать бесплатно и без рекламы последние новинки кино, игр, сериалов и прочего у нас, на Rutor.in. Не нужно использовать прокси, чтобы зайти на рутор, достаточно воспользоваться нашим ресурсом. Все новые фильмы, игры, сериалы, книги и музыка за 2013 и 2014 годы через торрент бесплатно. Скачивайте фильмы в хорошем качестве, игры для пк, xbox, playstation без регистрации. У нас вы найдете новые Зарубежные сериалы и Русские сериалы 2013, 2014, 2015 годов. Оставайтесь с нами, качайте любимые фильмы, игры, сериалы, книги и музыку.