img image001 image001 image001 image001 image001 image001 image001 image001 image001 image001 image001 image001 image001 image001 image001

Planets Sun Sun Sun
Статистика раздачи
Автор: Nickolas3434 | Размер: 2.88 ГБ | Добавлен: 04 авг 2016
Раздают: 41    Качают: 1
Скачать торрент
Скачать торрент
Описание торрента

СообщениеДобавлено: 04 авг 2016 


Название: Пиноккио
Оригинальное название: Pinocchio


Год выпуска: 1940
Страна: США
Жанр: мультфильм, фэнтези, драма, семейный
Продолжительность: 01:27:44
Перевод: Дублированный
Субтитры: Русские, Английские


Роли озвучивали: Мэл Бланк, Дон Броди, Уолтер Кэтлетт, Мэрион Дарлингтон, Фрэнки Дарро, Клифф Эдвардс, Дики Джонс, Чарльз Джуделс, Джек Мерсер, Патриция Пейдж
Режиссёр: Хэмильтон Ласки, Бен Шарпстин


Описание: Голубая фея оживила куклу-марионетку, но чтобы стать настоящим человеком, герою надо в добрых делах проявить свою храбрость и честность. И вот длинноносый непоседа и его совестливый друг сверчок Джимини Крикет отправляются навстречу самым невероятным приключениям.
Они встретят злого кукольника Стромболи, заглянут на обманчивый Остров удовольствий, где непослушных мальчиков превращают в ослов на продажу, и даже побывают в чреве чудовищного кита, проглотившего отца Пиноккио - мастера Джепетто.


Качество: BDRip, 720p, H.265
Формат: MKV
Видео кодек: x265
Аудио кодек: AC3
Видео: 968x720, 23,976 fps, HEVC, ~3806 kbps
Аудио 1: Rus, 48 kHz/16-bit, AC3 5.1, ~448 kbps | Дубляж
Аудио 2: Eng, 48 kHz/16-bit, AC3 5.1, ~448 kbps | Оригинал
Навигация по главам: Отсутствует


Автор рипа: Alex_A









- H.265/HEVC (High Efficiency Video Coding) - это новый стандарт кодирования видео.
- Стандарт H.265/HEVC является логическим продолжением стандарта H.264/AVC (Advanced Video Coding), и характеризуется более эффективными алгоритмами сжатия, а также поддержкой высокого разрешения вплоть до 8K UHD (8192x4320). Первая версия стандарта H.265 была опубликована в начале 2013 года.
- Рипы в фомате HEVC, в настоящее время не поддерживается большинством аппаратных проигрывателей.
- Для корректного воспроизведения может потребоваться обновление ПО.
- Найти подходящий плеер можно по ссылке, или поищите на этом ресурсе.
- Владельцам несовместимого железа просьба не беспокоить, есть альтернативные релизы.

General
Unique ID : 227930896998136411714734620905255177037 (0xAB79E4DBBD9788ADAA25B8A176178B4D)
Complete name : E:HEVCPinocchio (1940)Pinocchio.1940.720p_HEVCCLUB.mkv
Format : Matroska
Format version : Version 4 / Version 2
File size : 2.88 GiB
Duration : 1 h 27 min
Overall bit rate : 4 704 kb/s
Movie name : Pinocchio (1940) - HEVC.CLUB
Encoded date : UTC 2016-07-07 11:24:22
Writing application : mkvmerge v9.2.0 ('Photograph') 64bit
Writing library : libebml v1.3.3 + libmatroska v1.4.4
Cover : Yes
Attachments : cover.jpg
Video
ID : 1
Format : HEVC
Format/Info : High Efficiency Video Coding
Format profile : Main@L4.1@Main
Codec ID : V_MPEGH/ISO/HEVC
Duration : 1 h 27 min
Bit rate : 3 806 kb/s
Width : 968 pixels
Height : 720 pixels
Display aspect ratio : 4:3
Frame rate mode : Variable
Frame rate : 23.976 (23976/1000) FPS
Original frame rate : 23.976 (24000/1001) FPS
Color space : YUV
Chroma subsampling : 4:2:0
Bit depth : 8 bits
Bits/(Pixel*Frame) : 0.228
Stream size : 2.33 GiB (81%)
Title : HEVC.CLUB
Writing library : x265 1.9+210-106a5a7dc4b3:[Windows][GCC 5.3.0][64 bit] 8bit
Encoding settings : wpp / ctu=64 / min-cu-size=8 / max-tu-size=32 / tu-intra-depth=1 / tu-inter-depth=1 / me=3 / subme=6 / merange=92 / no-rect / no-amp / max-merge=2 / temporal-mvp / no-early-skip / recursion-skip / rdpenalty=0 / no-tskip / no-tskip-fast / strong-intra-smoothing / no-lossless / no-cu-lossless / no-constrained-intra / no-fast-intra / open-gop / no-temporal-layers / interlace=0 / keyint=230 / min-keyint=23 / scenecut=40 / rc-lookahead=60 / lookahead-slices=4 / bframes=10 / bframe-bias=0 / b-adapt=2 / ref=6 / limit-refs=3 / no-limit-modes / weightp / weightb / aq-mode=1 / qg-size=32 / aq-strength=1.00 / cbqpoffs=0 / crqpoffs=0 / rd=3 / psy-rd=2.00 / rdoq-level=0 / psy-rdoq=0.00 / no-rd-refine / signhide / deblock=-3:-3 / sao / no-sao-non-deblock / b-pyramid / cutree / no-intra-refresh / rc=2 / pass / bitrate=3805 / qcomp=0.60 / qpmin=0 / qpmax=51 / qpstep=4 / cplxblur=20.0 / qblur=0.5 / ipratio=1.40 / pbratio=1.30
Default : Yes
Forced : No
Audio #1
ID : 2
Format : AC-3
Format/Info : Audio Coding 3
Mode extension : CM (complete main)
Format settings, Endianness : Big
Codec ID : A_AC3
Duration : 1 h 27 min
Bit rate mode : Constant
Bit rate : 448 kb/s
Channel(s) : 6 channels
Channel positions : Front: L C R, Side: L R, LFE
Sampling rate : 48.0 kHz
Frame rate : 31.250 FPS (1536 spf)
Compression mode : Lossy
Stream size : 281 MiB (10%)
Title : DUB
Language : Russian
Default : Yes
Forced : No
Audio #2
ID : 3
Format : AC-3
Format/Info : Audio Coding 3
Mode extension : CM (complete main)
Format settings, Endianness : Big
Codec ID : A_AC3
Duration : 1 h 27 min
Bit rate mode : Constant
Bit rate : 448 kb/s
Channel(s) : 6 channels
Channel positions : Front: L C R, Side: L R, LFE
Sampling rate : 48.0 kHz
Frame rate : 31.250 FPS (1536 spf)
Compression mode : Lossy
Stream size : 281 MiB (10%)
Language : English
Default : No
Forced : No
Text #1
ID : 4
Format : UTF-8
Codec ID : S_TEXT/UTF8
Codec ID/Info : UTF-8 Plain Text
Duration : 1 h 27 min
Bit rate : 0 b/s
Count of elements : 7
Stream size : 252 Bytes (0%)
Language : Russian
Default : Yes
Forced : No
Text #2
ID : 5
Format : UTF-8
Codec ID : S_TEXT/UTF8
Codec ID/Info : UTF-8 Plain Text
Duration : 38 min
Bit rate : 14 b/s
Count of elements : 82
Stream size : 4.21 KiB (0%)
Language : Russian
Default : No
Forced : No
Text #3
ID : 6
Format : UTF-8
Codec ID : S_TEXT/UTF8
Codec ID/Info : UTF-8 Plain Text
Duration : 1 h 27 min
Bit rate : 48 b/s
Count of elements : 1002
Stream size : 30.8 KiB (0%)
Language : English
Default : No
Forced : No
Text #4
ID : 7
Format : UTF-8
Codec ID : S_TEXT/UTF8
Codec ID/Info : UTF-8 Plain Text
Duration : 1 h 27 min
Bit rate : 57 b/s
Count of elements : 1211
Stream size : 36.8 KiB (0%)
Language : English
Default : No
Forced : No




   Похожие торренты   Торрент   Размер 
В этой теме нет новых непрочитанных сообщений. Пиноккио / Pinocchio (1940) BDRip HEVC 1080p | D

14 | 5

5.43 ГБ

В этой теме нет новых непрочитанных сообщений. Пиноккио / Pinocchio (1940) BDRip 720p | 60 fps

51 | 10

4.76 ГБ

В этой теме нет новых непрочитанных сообщений. Пиноккио / Pinocchio (1940) BDRip 720p от Freeisland

0 | 4

4.38 ГБ

В этой теме нет новых непрочитанных сообщений. Пиноккио / Pinocchio (1940) BDRip [720p] от HQ-ViDEO.

9 | 2

4.37 ГБ

В этой теме нет новых непрочитанных сообщений. Пиноккио / Pinocchio (1940) BDRip-AVC

66 | 9

1.45 ГБ

В этой теме нет новых непрочитанных сообщений. Пиноккио / Pinocchio (1940) BDRip от HQCLUB

83 | 6

1.45 ГБ

В этой теме нет новых непрочитанных сообщений. Пиноккио / Pinocchio (1940) BDRip 1080p | 60 fps

104 | 21

6.9 ГБ




Вы не можете начинать темы
Вы не можете отвечать на сообщения
Вы не можете редактировать свои сообщения
Вы не можете удалять свои сообщения
Вы не можете добавлять вложения

Перейти:  
Для Мосгорсуда, Роскомнадзора и рекламодателей: mosgorsud-torrent[собачка]yandex.ru
 Вход
ppkBB3cker v.2 © 2008-2014 @ PPK
[ Time : 0.032s | 17 Queries | GZIP : Off ]

Торрент трекер RUTOR.IN, Не можете зайти на rutor.org? Какой новый адрес рутор? Какое зеркало рутор? Не работает rutor.org и зеркала? Тогда наш торрент специально для вас. Rutor.in неофициальное зеркало rutor. В случае если у Вас заблокирован rutor или вдруг Вы не можете на него зайти, то Вы без труда сможете скачать бесплатно и без рекламы последние новинки кино, игр, сериалов и прочего у нас, на Rutor.in. Не нужно использовать прокси, чтобы зайти на рутор, достаточно воспользоваться нашим ресурсом. Все новые фильмы, игры, сериалы, книги и музыка за 2013 и 2014 годы через торрент бесплатно. Скачивайте фильмы в хорошем качестве, игры для пк, xbox, playstation без регистрации. У нас вы найдете новые Зарубежные сериалы и Русские сериалы 2013, 2014, 2015 годов. Оставайтесь с нами, качайте любимые фильмы, игры, сериалы, книги и музыку.