img image001 image001 image001 image001 image001 image001 image001 image001 image001 image001 image001 image001 image001 image001 image001

Planets Sun Sun Sun
Статистика раздачи
Автор: Nickolas3434 | Размер: 5.43 ГБ | Добавлен: 05 авг 2016
Раздают: 20    Качают: 6
Скачать торрент
Скачать торрент
Описание торрента

СообщениеДобавлено: 05 авг 2016 


Название: Пиноккио
Оригинальное название: Pinocchio


Год выпуска: 1940
Страна: США
Жанр: мультфильм, фэнтези, драма, семейный
Продолжительность: 01:27:44
Перевод: Дублированный
Субтитры: Русские, Английские


Роли озвучивали: Мэл Бланк, Дон Броди, Уолтер Кэтлетт, Мэрион Дарлингтон, Фрэнки Дарро, Клифф Эдвардс, Дики Джонс, Чарльз Джуделс, Джек Мерсер, Патриция Пейдж
Режиссёр: Хэмильтон Ласки, Бен Шарпстин


Описание: Голубая фея оживила куклу-марионетку, но чтобы стать настоящим человеком, герою надо в добрых делах проявить свою храбрость и честность. И вот длинноносый непоседа и его совестливый друг сверчок Джимини Крикет отправляются навстречу самым невероятным приключениям.
Они встретят злого кукольника Стромболи, заглянут на обманчивый Остров удовольствий, где непослушных мальчиков превращают в ослов на продажу, и даже побывают в чреве чудовищного кита, проглотившего отца Пиноккио - мастера Джепетто.


Качество: BDRip, 1080p, H.265
Формат: MKV
Видео кодек: x265
Аудио кодек: AC3
Видео: 1452x1080, 23,976 fps, HEVC, ~7767 kbps
Аудио 1: Rus, 48 kHz/16-bit, AC3 5.1, ~640 kbps | Дубляж
Аудио 2: Eng, 48 kHz/16-bit, AC3 5.1, ~448 kbps | Оригинал
Навигация по главам: Отсутствует


Автор рипа: Alex_A









- H.265/HEVC (High Efficiency Video Coding) - это новый стандарт кодирования видео.
- Стандарт H.265/HEVC является логическим продолжением стандарта H.264/AVC (Advanced Video Coding), и характеризуется более эффективными алгоритмами сжатия, а также поддержкой высокого разрешения вплоть до 8K UHD (8192x4320). Первая версия стандарта H.265 была опубликована в начале 2013 года.
- Рипы в фомате HEVC, в настоящее время не поддерживается большинством аппаратных проигрывателей.
- Для корректного воспроизведения может потребоваться обновление ПО.
- Найти подходящий плеер можно по ссылке, или поищите на этом ресурсе.
- Владельцам несовместимого железа просьба не беспокоить, есть альтернативные релизы.

Общее
Уникальный идентификатор : 210569426371021712916468280061957851861 (0x9E6A3244C859665AA2F9174D48354AD5)
Полное имя : e:HEVCPinocchio (1940)Pinocchio.1940.1080p_HEVCCLUB.mkv
Формат : Matroska
Версия формата : Version 4 / Version 2
Размер файла : 5,43 Гбайт
Продолжительность : 1 ч. 27 м.
Общий поток : 8857 Кбит/сек
Название фильма : Pinocchio (1940) - HEVC.CLUB
Дата кодирования : UTC 2016-07-07 11:27:13
Программа кодирования : mkvmerge v9.2.0 ('Photograph') 64bit
Библиотека кодирования : libebml v1.3.3 + libmatroska v1.4.4
Обложка : Yes
Attachments : cover.jpg
Видео
Идентификатор : 1
Формат : HEVC
Формат/Информация : High Efficiency Video Coding
Профиль формата : Main@L4.1@Main
Идентификатор кодека : V_MPEGH/ISO/HEVC
Продолжительность : 1 ч. 27 м.
Битрейт : 7767 Кбит/сек
Ширина : 1452 пикселя
Высота : 1080 пикселей
Соотношение сторон : 4:3
Режим частоты кадров : Постоянный
Частота кадров : 23,976 (24000/1001) кадра/сек
Цветовое пространство : YUV
Субдискретизация насыщенности : 4:2:0
Битовая глубина : 8 бит
Бит/(Пиксели*Кадры) : 0.207
Размер потока : 4,76 Гбайт (88%)
Заголовок : HEVC.CLUB
Библиотека кодирования : x265 1.9+150-00ea3784bd36:[Windows][GCC 5.3.0][64 bit] 8bit
Настройки программы : wpp / ctu=64 / min-cu-size=8 / max-tu-size=32 / tu-intra-depth=1 / tu-inter-depth=1 / me=3 / subme=6 / merange=92 / no-rect / no-amp / max-merge=2 / temporal-mvp / no-early-skip / rdpenalty=0 / no-tskip / no-tskip-fast / strong-intra-smoothing / no-lossless / no-cu-lossless / no-constrained-intra / no-fast-intra / open-gop / no-temporal-layers / interlace=0 / keyint=230 / min-keyint=23 / scenecut=40 / rc-lookahead=60 / lookahead-slices=6 / bframes=10 / bframe-bias=0 / b-adapt=2 / ref=6 / limit-refs=3 / no-limit-modes / weightp / weightb / aq-mode=1 / qg-size=32 / aq-strength=1.00 / cbqpoffs=0 / crqpoffs=0 / rd=3 / psy-rd=2.00 / rdoq-level=0 / psy-rdoq=0.00 / no-rd-refine / signhide / deblock=-4:-4 / sao / no-sao-non-deblock / b-pyramid / cutree / no-intra-refresh / rc=2 / pass / bitrate=7766 / qcomp=0.60 / qpmin=0 / qpmax=51 / qpstep=4 / cplxblur=20.0 / qblur=0.5 / ipratio=1.40 / pbratio=1.30
Default : Да
Forced : Нет
Аудио #1
Идентификатор : 2
Формат : AC-3
Формат/Информация : Audio Coding 3
Расширение режима : CM (complete main)
Параметр Endianness формата : Big
Идентификатор кодека : A_AC3
Продолжительность : 1 ч. 27 м.
Вид битрейта : Постоянный
Битрейт : 640 Кбит/сек
Каналы : 6 каналов
Расположение каналов : Front: L C R, Side: L R, LFE
Частота : 48,0 КГц
Частота кадров : 31,250 кадров/сек (1536 spf)
Метод сжатия : С потерями
Размер потока : 402 Мбайт (7%)
Заголовок : DUB
Язык : Russian
Default : Да
Forced : Нет
Аудио #2
Идентификатор : 3
Формат : AC-3
Формат/Информация : Audio Coding 3
Расширение режима : CM (complete main)
Параметр Endianness формата : Big
Идентификатор кодека : A_AC3
Продолжительность : 1 ч. 27 м.
Вид битрейта : Постоянный
Битрейт : 448 Кбит/сек
Каналы : 6 каналов
Расположение каналов : Front: L C R, Side: L R, LFE
Частота : 48,0 КГц
Частота кадров : 31,250 кадров/сек (1536 spf)
Метод сжатия : С потерями
Размер потока : 281 Мбайт (5%)
Язык : English
Default : Нет
Forced : Нет
Текст #1
Идентификатор : 4
Формат : UTF-8
Идентификатор кодека : S_TEXT/UTF8
Идентификатор кодека/Информация : UTF-8 Plain Text
Продолжительность : 1 ч. 27 м.
Битрейт : 0 бит/сек
Count of elements : 7
Размер потока : 252 байт (0%)
Язык : Russian
Default : Да
Forced : Нет
Текст #2
Идентификатор : 5
Формат : UTF-8
Идентификатор кодека : S_TEXT/UTF8
Идентификатор кодека/Информация : UTF-8 Plain Text
Продолжительность : 38 м.
Битрейт : 14 бит/сек
Count of elements : 82
Размер потока : 4,21 Кбайт (0%)
Язык : Russian
Default : Нет
Forced : Нет
Текст #3
Идентификатор : 6
Формат : UTF-8
Идентификатор кодека : S_TEXT/UTF8
Идентификатор кодека/Информация : UTF-8 Plain Text
Продолжительность : 1 ч. 27 м.
Битрейт : 48 бит/сек
Count of elements : 1002
Размер потока : 30,8 Кбайт (0%)
Язык : English
Default : Нет
Forced : Нет
Текст #4
Идентификатор : 7
Формат : UTF-8
Идентификатор кодека : S_TEXT/UTF8
Идентификатор кодека/Информация : UTF-8 Plain Text
Продолжительность : 1 ч. 27 м.
Битрейт : 57 бит/сек
Count of elements : 1211
Размер потока : 36,8 Кбайт (0%)
Язык : English
Default : Нет
Forced : Нет




   Похожие торренты   Торрент   Размер 
В этой теме нет новых непрочитанных сообщений. Пиноккио / Pinocchio (1940) BDRip HEVC 720p | D

41 | 2

2.88 ГБ

В этой теме нет новых непрочитанных сообщений. Пиноккио / Pinocchio (1940) BDRip 1080p | 60 fps

104 | 21

6.9 ГБ

В этой теме нет новых непрочитанных сообщений. Пиноккио / Pinocchio (1940) BDRip 1080p

37 | 4

4.37 ГБ

В этой теме нет новых непрочитанных сообщений. Пиноккио / Pinocchio (1940) BDRip-AVC

66 | 9

1.45 ГБ

В этой теме нет новых непрочитанных сообщений. Пиноккио / Pinocchio (1940) BDRip 720p | 60 fps

51 | 10

4.76 ГБ

В этой теме нет новых непрочитанных сообщений. Пиноккио / Pinocchio (1940) BDRip-AVC от 0ptimus | D, P, A

89 | 20

2.34 ГБ

В этой теме нет новых непрочитанных сообщений. Пиноккио / Pinocchio (1940) BDRip от HQCLUB

83 | 6

1.45 ГБ




Вы не можете начинать темы
Вы не можете отвечать на сообщения
Вы не можете редактировать свои сообщения
Вы не можете удалять свои сообщения
Вы не можете добавлять вложения

Перейти:  
Для Мосгорсуда, Роскомнадзора и рекламодателей: mosgorsud-torrent[собачка]yandex.ru
 Вход
ppkBB3cker v.2 © 2008-2014 @ PPK
[ Time : 0.022s | 14 Queries | GZIP : Off ]

Торрент трекер RUTOR.IN, Не можете зайти на rutor.org? Какой новый адрес рутор? Какое зеркало рутор? Не работает rutor.org и зеркала? Тогда наш торрент специально для вас. Rutor.in неофициальное зеркало rutor. В случае если у Вас заблокирован rutor или вдруг Вы не можете на него зайти, то Вы без труда сможете скачать бесплатно и без рекламы последние новинки кино, игр, сериалов и прочего у нас, на Rutor.in. Не нужно использовать прокси, чтобы зайти на рутор, достаточно воспользоваться нашим ресурсом. Все новые фильмы, игры, сериалы, книги и музыка за 2013 и 2014 годы через торрент бесплатно. Скачивайте фильмы в хорошем качестве, игры для пк, xbox, playstation без регистрации. У нас вы найдете новые Зарубежные сериалы и Русские сериалы 2013, 2014, 2015 годов. Оставайтесь с нами, качайте любимые фильмы, игры, сериалы, книги и музыку.