img image001 image001 image001 image001 image001 image001 image001 image001 image001 image001 image001 image001 image001 image001 image001

Planets Sun Sun Sun
Статистика раздачи
Автор: PriZraK | Размер: 5.74 ГБ | Добавлен: 16 авг 2016
Раздают: 8    Качают: 2
Скачать торрент
Скачать торрент
Описание торрента

СообщениеДобавлено: 16 авг 2016 

Информация о фильме
Название: Соник Бум
Оригинальное название: Sonic Boom
Год выхода: 2014
Страна: США, Франция, OuiDO! Productions, Sega of America
Жанр: Мультсериал, фэнтези, боевик, комедия, приключения
Продолжительность: 31 х ~ 00:11:07
Перевод: Профессиональный дублированный
Режиссеры: Эван Бейли, Донна Фридман Майер, Сандрин Нгуен
Роли озвучивали: Ника Футтерман, Коллин О’Шонесси, Синди Робинсон, Роджер Крэйг Смит, Трэвис Уиллингэм, Майк Поллок, Кирк Торнтон, Джеймс Хоран, Уолли Вингерт, Джеймс С. Бёрнс, ...
Роли дублировали: Даниил Эльдаров, ...
О фильме: События мультсериала разворачиваются в альтернативном мире, отличном от вселенной видеоигр. Каждая серия представляет собой отдельную историю с участием главных героев: ёжика Соника, лисёнка Тейлза, ехидны Наклза, ежихи Эми Роуз и барсучихи Стикс, противостоящих очередному коварному плану доктора Эггмана. В роли противников также выступят как знакомые по играм, так и совершенно новые персонажи.
01. Напарник
02. Приют для злодея
03. Трудности перевода
04. Бастер
05. Моя прекрасная Стикс
06. Экстремальное преображение
07. Двойной конец света
08. Яйцеголовые
09. Чувство вины
10. Куда делся Эггман
11. Робокорова
12. Нелегальный цирк
13. Невезучий Наклз
14. Метеорит
15. Эггман в депрессии
16. Случайный Злодей
17. Не судите меня
18. Соус Доктора Эггмана
19. Энергия бега
20. День Ежа
21. Спяший гигант
22. Храм Дружбы
23. Слаженные действия
27. У Эми
28. Посинеть от зависти
29. Поклятие косоглазого лося
30. Конкурс Чили-догов
31. Тайна закрытой двери
33. Эггман - режиссёр
44. Меня подставили
45. Битва роботов



Доп. информация:
премьера (мир) 8 ноября 2014, ...
Семпл


Файл
Формат: MP4
Качество: WEB-DLRip 1080p
Видео: MPEG4-AVC, High@L4, 1920x1080 (16:9), ~ 2 864 Kbps, 25.000 fps
Аудио: 44.1 KHz, AAC-LC 2.0, 126 Kbps
Субтитры: нет
19. Энергия бега. Full-HD-merci-.mp4
Формат : MPEG-4
Профиль формата : Base Media
Идентификатор кодека : isom (isom/mp42)
Размер файла : 249 Мбайт
Продолжительность : 11 м.
Режим общего битрейта : Переменный
Общий поток : 3122 Кбит/сек
Дата кодирования : UTC 2016-08-02 07:50:36
Дата пометки : UTC 2016-08-02 07:50:36
Программа кодирования : My MP4Box GUI 0.6.0.6
Видео
Идентификатор : 1
Формат : AVC
Формат/Информация : Advanced Video Codec
Профиль формата : High@L4
Параметр CABAC формата : Да
Параметр ReFrames формата : 2 кадра
Идентификатор кодека : avc1
Идентификатор кодека/Информация : Advanced Video Coding
Продолжительность : 11 м.
Продолжительность оригинала : 11 м.
Битрейт : 2864 Кбит/сек
Ширина : 1920 пикселей
Высота : 1080 пикселей
Соотношение сторон : 16:9
Режим частоты кадров : Постоянный
Частота кадров : 25,000 кадров/сек
Цветовое пространство : YUV
Субдискретизация насыщенности : 4:2:0
Битовая глубина : 8 бит
Тип развёртки : Прогрессивная
Бит/(Пиксели*Кадры) : 0.055
Размер потока : 228 Мбайт (92%)
Размер потока оригинала : 238 Мбайт (96%)
Язык : English
Дата кодирования : UTC 2016-08-02 07:50:36
Дата пометки : UTC 2016-08-02 07:50:36
Цветовой диапазон : Limited
Основные цвета : BT.709
Характеристики трансфера : BT.709
Коэффициенты матрицы : BT.709
mdhd_Duration : 667823
Аудио
Идентификатор : 2
Формат : AAC
Формат/Информация : Advanced Audio Codec
Профиль формата : LC
Идентификатор кодека : 40
Продолжительность : 11 м.
Вид битрейта : Переменный
Битрейт : 126 Кбит/сек
Каналы : 2 канала
Расположение каналов : Front: L R
Частота : 44,1 КГц
Частота кадров : 43,066 кадра/сек (1024 spf)
Метод сжатия : С потерями
Размер потока : 10,00 Мбайт (4%)
Язык : English
Дата кодирования : UTC 2016-08-02 07:50:36
Дата пометки : UTC 2016-08-02 07:50:36
mdhd_Duration : 667837


Релиз от:
Автор релиза: /



   Похожие торренты   Торрент   Размер 
В этой теме нет новых непрочитанных сообщений. Соник Бум / Sonic Boom [01x01-31 из 52] (2014) WEB-DLRip 1080p от ExKinoRay | D

20 | 12

6.78 ГБ

В этой теме нет новых непрочитанных сообщений. Соник Бум / Sonic Boom [01x01-31 из 52] (2014) WEB-DLRip 1080p от ExKinoRay | D

9 | 5

7.66 ГБ

В этой теме нет новых непрочитанных сообщений. Соник Бум / Sonic Boom [01x01-31 из 52] (2014) WEB-DLRip 1080p от ExKinoRay | D

0 | 0

8.87 ГБ

В этой теме нет новых непрочитанных сообщений. Соник Бум / Sonic Boom [01x01-31 из 52] (2014) WEB-DLRip от ExKinoRay | D

5 | 8

5.57 ГБ

В этой теме нет новых непрочитанных сообщений. Соник Бум / Sonic Boom [01x01-31 из 52] (2014) WEB-DLRip от ExKinoRay | D

18 | 12

5.04 ГБ

В этой теме нет новых непрочитанных сообщений. Соник Бум / Sonic Boom [01x01-31 из 52] (2014) WEB-DLRip от ExKinoRay | D

0 | 0

6.42 ГБ

В этой теме нет новых непрочитанных сообщений. Соник Бум / Sonic Boom [01x01-31 из 52] (2014) WEB-DLRip от ExKinoRay | D

24 | 22

4.36 ГБ




Вы не можете начинать темы
Вы не можете отвечать на сообщения
Вы не можете редактировать свои сообщения
Вы не можете удалять свои сообщения
Вы не можете добавлять вложения

Перейти:  
Для Мосгорсуда, Роскомнадзора и рекламодателей: mosgorsud-torrent[собачка]yandex.ru
 Вход
ppkBB3cker v.2 © 2008-2014 @ PPK
[ Time : 0.554s | 16 Queries | GZIP : Off ]

Торрент трекер RUTOR.IN, Не можете зайти на rutor.org? Какой новый адрес рутор? Какое зеркало рутор? Не работает rutor.org и зеркала? Тогда наш торрент специально для вас. Rutor.in неофициальное зеркало rutor. В случае если у Вас заблокирован rutor или вдруг Вы не можете на него зайти, то Вы без труда сможете скачать бесплатно и без рекламы последние новинки кино, игр, сериалов и прочего у нас, на Rutor.in. Не нужно использовать прокси, чтобы зайти на рутор, достаточно воспользоваться нашим ресурсом. Все новые фильмы, игры, сериалы, книги и музыка за 2013 и 2014 годы через торрент бесплатно. Скачивайте фильмы в хорошем качестве, игры для пк, xbox, playstation без регистрации. У нас вы найдете новые Зарубежные сериалы и Русские сериалы 2013, 2014, 2015 годов. Оставайтесь с нами, качайте любимые фильмы, игры, сериалы, книги и музыку.
cron