img image001 image001 image001 image001 image001 image001 image001 image001 image001 image001 image001 image001 image001 image001 image001

Planets Sun Sun Sun
Статистика раздачи
Автор: PriZraK | Размер: 24.9 ГБ | Добавлен: 17 авг 2016
Раздают: 29    Качают: 8
Скачать торрент
Скачать торрент
Описание торрента

СообщениеДобавлено: 17 авг 2016 

Информация о фильме
Название: Рэтчет и Кланк: Галактические рейнджеры
Оригинальное название: Ratchet & Clank
Год выхода: 2016
Жанр: Мультфильм, полнометражный, семейный, фантастика, боевик, комедия, приключения
Режиссер: Кевин Манро, Джерика Клилэнд
В ролях: Джеймс Арнольд Тейлор, Дэвид Кэй, Джим Уорд, Йен Джеймс Корлетт, Эндрю Каунден, Розарио Доусон, Брайан Добсон, Брайан Драммонд, Пол Джаматти
О фильме:
Большеухий ловкач Рэтчет всегда мечтал присоединиться к Галактическим космическим рейнджерам, но самовлюбленный супергерой Капитан Кварк не принимает его в команду. И все же, когда робот Кланк приносит весть о коварном плане злодея Дрека из расы Блэрг создать новую планету для своего вида, предварительно избавившись от рейнджеров и уничтожив Солнечную систему, миссия по спасению галактики ложится именно на пушистые плечи остряка Рэтчета. А металлический Кланк становится его верным спутником и помощником.

Страна: Гонконг, Канада, США
Студия: Aperture Media Partners, Blockade Entertainment, CNHK Media
Продолжительность: 01:34:05
Перевод: Дублированный | iTunes
Файл
Кодек: MPEG-4
Качество: BDRemux 1080p
Видео: 1920x1080, 33.5 Mbit/s, 23.976 fps
Звук:
Аудио #01: 48 kHz, AC3, 5.1, 384 Kbps | Дублированный, iTunes |
Аудио #02: 48 kHz, DTS-HD MA, 5.1, 3990 kbps | Оригинал |
Субтитры: Английские

General
Unique ID : 245247171262035812187052229423057887166 (0xB880E318650411818644727CCCBC5FBE)
Complete name : G:VideoRatchet.&.Clank.2016.BDREMUX.1080p.ExKinoRay.mkv
Format : Matroska
Format version : Version 4 / Version 2
File size : 24.9 GiB
Duration : 1h 34mn
Overall bit rate mode : Variable
Overall bit rate : 37.9 Mbps
Movie name : Ratchet.&.Clank.2016.BDREMUX.1080p.ExKinoRay
Encoded date : UTC 2016-08-16 07:46:02
Writing application : mkvmerge v8.3.0 ('Over the Horizon') 64bit
Writing library : libebml v1.3.1 + libmatroska v1.4.2
Video
ID : 1
Format : AVC
Format/Info : Advanced Video Codec
Format profile : High@L4.1
Format settings, CABAC : Yes
Format settings, ReFrames : 4 frames
Codec ID : V_MPEG4/ISO/AVC
Duration : 1h 34mn
Bit rate mode : Variable
Bit rate : 33.5 Mbps
Maximum bit rate : 37.0 Mbps
Width : 1 920 pixels
Height : 1 080 pixels
Display aspect ratio : 16:9
Frame rate mode : Constant
Frame rate : 23.976 (24000/1001) fps
Color space : YUV
Chroma subsampling : 4:2:0
Bit depth : 8 bits
Scan type : Progressive
Bits/(Pixel*Frame) : 0.674
Stream size : 22.0 GiB (88%)
Language : English
Default : Yes
Forced : No
Audio #1
ID : 2
Format : AC-3
Format/Info : Audio Coding 3
Mode extension : CM (complete main)
Format settings, Endianness : Big
Codec ID : A_AC3
Duration : 1h 34mn
Bit rate mode : Constant
Bit rate : 384 Kbps
Channel(s) : 6 channels
Channel positions : Front: L C R, Side: L R, LFE
Sampling rate : 48.0 KHz
Frame rate : 31.250 fps (1536 spf)
Compression mode : Lossy
Stream size : 258 MiB (1%)
Title : DUB (iTunes)
Language : Russian
Default : Yes
Forced : No
Audio #2
ID : 3
Format : DTS
Format/Info : Digital Theater Systems
Format profile : MA / Core
Mode : 16
Format settings, Endianness : Big
Codec ID : A_DTS
Duration : 1h 34mn
Bit rate mode : Variable / Constant
Bit rate : 3 990 Kbps / 1 509 Kbps
Channel(s) : 6 channels
Channel positions : Front: L C R, Side: L R, LFE
Sampling rate : 48.0 KHz
Frame rate : 93.750 fps (512 spf)
Bit depth : 24 bits
Compression mode : Lossless / Lossy
Stream size : 2.62 GiB (11%)
Title : Original
Language : English
Default : No
Forced : No
Text
ID : 4
Format : UTF-8
Codec ID : S_TEXT/UTF8
Codec ID/Info : UTF-8 Plain Text
Duration : 1h 32mn
Bit rate : 66 bps
Count of elements : 1480
Stream size : 45.3 KiB (0%)
Title : Full
Language : English
Default : No
Forced : No
Menu
00:00:00.000 : en:00:00:00.000
00:03:12.526 : en:00:03:12.526
00:08:50.822 : en:00:08:50.822
00:14:23.112 : en:00:14:23.112
00:17:40.059 : en:00:17:40.059
00:21:49.892 : en:00:21:49.892
00:26:15.783 : en:00:26:15.783
00:31:23.340 : en:00:31:23.340
00:36:22.847 : en:00:36:22.847
00:41:23.940 : en:00:41:23.940
00:46:11.185 : en:00:46:11.185
00:49:30.342 : en:00:49:30.342
00:53:28.247 : en:00:53:28.247
00:57:00.459 : en:00:57:00.459
01:01:44.743 : en:01:01:44.743
01:07:42.767 : en:01:07:42.767
01:11:16.731 : en:01:11:16.731
01:18:47.473 : en:01:18:47.473
01:23:20.120 : en:01:23:20.120
01:27:53.810 : en:01:27:53.810

Релиз от: Автор релиза:



   Похожие торренты   Торрент   Размер 
В этой теме нет новых непрочитанных сообщений. Рэтчет и Кланк: Галактические рейнджеры / Ratchet & Clank (2015) BDRip 1080p от ExKinoRay | iTunes

105 | 15

5.47 ГБ

В этой теме нет новых непрочитанных сообщений. Рэтчет и Кланк: Галактические рейнджеры / Ratchet & Clank (2015) BDRip от ExKinoRay | iTunes

64 | 7

1.42 ГБ

В этой теме нет новых непрочитанных сообщений. Рэтчет и Кланк: Галактические рейнджеры / Ratchet & Clank (2015) BDRip 720p от ExKinoRay | iTunes

25 | 4

5.15 ГБ

В этой теме нет новых непрочитанных сообщений. Рэтчет и Кланк: Галактические рейнджеры / Ratchet & Clank (2015) BDRip 1080p | iTunes

422 | 12

4.62 ГБ

В этой теме нет новых непрочитанных сообщений. Рэтчет и Кланк: Галактические рейнджеры / Ratchet & Clank (2015) BDRip 1080p от Ash61 | 3D-Video | halfOU | iTunes

28 | 28

5.53 ГБ

В этой теме нет новых непрочитанных сообщений. Рэтчет и Кланк: Галактические рейнджеры / Ratchet & Clank (2015) HDRip | iTunes

338 | 9

1.37 ГБ

В этой теме нет новых непрочитанных сообщений. Рэтчет и Кланк: Галактические рейнджеры / Ratchet & Clank (2015) HDRip-AVC | iTunes

60 | 7

2.19 ГБ




Вы не можете начинать темы
Вы не можете отвечать на сообщения
Вы не можете редактировать свои сообщения
Вы не можете удалять свои сообщения
Вы не можете добавлять вложения

Перейти:  
Для Мосгорсуда, Роскомнадзора и рекламодателей: mosgorsud-torrent[собачка]yandex.ru
 Вход
ppkBB3cker v.2 © 2008-2014 @ PPK
[ Time : 0.037s | 15 Queries | GZIP : Off ]

Торрент трекер RUTOR.IN, Не можете зайти на rutor.org? Какой новый адрес рутор? Какое зеркало рутор? Не работает rutor.org и зеркала? Тогда наш торрент специально для вас. Rutor.in неофициальное зеркало rutor. В случае если у Вас заблокирован rutor или вдруг Вы не можете на него зайти, то Вы без труда сможете скачать бесплатно и без рекламы последние новинки кино, игр, сериалов и прочего у нас, на Rutor.in. Не нужно использовать прокси, чтобы зайти на рутор, достаточно воспользоваться нашим ресурсом. Все новые фильмы, игры, сериалы, книги и музыка за 2013 и 2014 годы через торрент бесплатно. Скачивайте фильмы в хорошем качестве, игры для пк, xbox, playstation без регистрации. У нас вы найдете новые Зарубежные сериалы и Русские сериалы 2013, 2014, 2015 годов. Оставайтесь с нами, качайте любимые фильмы, игры, сериалы, книги и музыку.