img image001 image001 image001 image001 image001 image001 image001 image001 image001 image001 image001 image001 image001 image001 image001

Planets Sun Sun Sun
Статистика раздачи
Автор: PriZraK | Размер: 745.92 МБ | Добавлен: 23 авг 2016
Раздают: 96    Качают: 4
Скачать торрент
Скачать торрент
Описание торрента

СообщениеДобавлено: 23 авг 2016 


Информация о фильме
Название: LEGO Friends: Лучшие подружки
Оригинальное название: LEGO Friends: Girlz 4 Life
Год выхода: 2016
Страна: США
Жанр: мультфильм, семейный
Режиссер: Джим Джордж / Jim George, Боб Сили / Bob Seeley
В ролях: Эрика Мендез, Кристина Валенсуела, Эмили Альбрехт, Милли О'Коннор, Марианна Миллер, Рэйчел Хэгер, Алекса Кан
О фильме: Красочный полнометражный мультфильм по мотивам популярного мультсериала LEGO «Подружки из Хартлейк Сити». «LEGO Friends: Лучшие подружки» – история приключений пяти очень разных, но очень дружных девочек, живущих в лего-городке. У каждой из них есть свое увлечение: Миа, например, обожает животных. Эмма - самая спортивная. Оливия – настоящий изобретатель. Андреа - танцует и поет. A Стефани же – трудолюбивая девушка, умеющая и любящая готовить. Объединяет их не только крепкая дружба, но и общее дело – у девочек есть своя музыкальная группа. Однажды подруги узнают, что в Хартлейк Сити с концертом приезжает их любимая певица Ливи, и решают во что что бы то ни стало познакомиться с ней и показать звезде свои песни. Что ж, для этих девчонок нет ничего невозможного, несмотря на то, что у них есть серьезные конкуренты.

Продолжительность: 01:13:39
Перевод: Профессиональный (многоголосый, закадровый)
Субтитры: отсутствуют
Файл
Кодек: XviD
Качество: BDRip
Видео: 640x360 (1.78:1), 23.976 fps, XviD build 73 ~1170 kbps avg, 0.21 bit/pixel
Аудио:48 kHz, MPEG Layer 3, 2 ch, ~128.00 kbps avg

General
Complete name : C:LEGO Friends Girlz 4 LifeLEGO_Friends_Girlz_4_Life_BDRip.avi
Format : AVI
Format/Info : Audio Video Interleave
File size : 746 MiB
Duration : 1h 19mn
Overall bit rate : 1 308 Kbps
Movie name : LEGO Friends: Girlz 4 Life [ripped by domin8]
Genre : Child's
Writing application : VirtualDubMod 1.5.10.3 | www.virtualdub-fr.org || (build 2550/release)
Original source form/Name : Cartoon
Video #0
ID : 0
Format : MPEG-4 Visual
Format profile : Advanced Simple@L5
Format settings, BVOP : Yes
Format settings, QPel : No
Format settings, GMC : No warppoints
Format settings, Matrix : Default (H.263)
Codec ID : XVID
Codec ID/Hint : XviD
Duration : 1h 19mn
Bit rate : 1 171 Kbps
Width : 640 pixels
Height : 360 pixels
Display aspect ratio : 16:9
Frame rate : 23.976 fps
Color space : YUV
Chroma subsampling : 4:2:0
Bit depth : 8 bits
Scan type : Progressive
Bits/(Pixel*Frame) : 0.212
Stream size : 668 MiB (90%)
Writing library : XviD 73
Audio #1
ID : 1
Format : MPEG Audio
Format version : Version 1
Format profile : Layer 3
Mode : Joint stereo
Mode extension : MS Stereo
Codec ID : 55
Codec ID/Hint : MP3
Duration : 1h 19mn
Bit rate mode : Constant
Bit rate : 128 Kbps
Channel(s) : 2 channels
Sampling rate : 48.0 KHz
Stream size : 73.0 MiB (10%)
Alignment : Aligned on interleaves
Interleave, duration : 42 ms (1.00 video frame)
Interleave, preload duration : 504 ms
Title : rus
Writing library : LAME3.99r
Encoding settings : -m j -V 4 -q 0 -lowpass 17 -b 128

Автор рипа: domin8



   Похожие торренты   Торрент   Размер 
В этой теме нет новых непрочитанных сообщений. LEGO Friends: Лучшие подружки / LEGO Friends: Girlz 4 Life (2016) BDRip 720p от -merci- | P

449 | 31

1.7 ГБ

В этой теме нет новых непрочитанных сообщений. LEGO Friends: Лучшие подружки / LEGO Friends: Girlz 4 Life (2016) BDRip 1080p от -merci- | P

217 | 12

2.15 ГБ

В этой теме нет новых непрочитанных сообщений. LEGO Friends: Лучшие подружки / LEGO Friends: Girlz 4 Life (2016) HDRip | P

710 | 16

1.37 ГБ

В этой теме нет новых непрочитанных сообщений. Подружки из Хартлейк Сити. Вебизоды / LEGO Friends. Webisodes [01-86 из ?] (2014-2016) WEB-DL 720p от ExKinoRay | D

25 | 9

8.13 ГБ

В этой теме нет новых непрочитанных сообщений. Подружки из Хартлейк Сити. Вебизоды / LEGO Friends. Webisodes [01-73 из ??] (2014-2016) WEB-DLRip от -merci- | D

11 | 3

3.48 ГБ

В этой теме нет новых непрочитанных сообщений. Подружки из Хартлейк Сити. Вебизоды / LEGO Friends. Webisodes [01-73 из ??] (2014-2016) WEB-DLRip от -merci- | D

38 | 3

3.58 ГБ

В этой теме нет новых непрочитанных сообщений. Подружки из Хартлейк Сити. Вебизоды / LEGO Friends. Webisodes [01-69 из ??] (2014-2016) WEB-DL 720p от -merci-

49 | 6

6.51 ГБ




Вы не можете начинать темы
Вы не можете отвечать на сообщения
Вы не можете редактировать свои сообщения
Вы не можете удалять свои сообщения
Вы не можете добавлять вложения

Перейти:  
Для Мосгорсуда, Роскомнадзора и рекламодателей: mosgorsud-torrent[собачка]yandex.ru
 Вход
ppkBB3cker v.2 © 2008-2014 @ PPK
[ Time : 0.043s | 14 Queries | GZIP : On ]

Торрент трекер RUTOR.IN, Не можете зайти на rutor.org? Какой новый адрес рутор? Какое зеркало рутор? Не работает rutor.org и зеркала? Тогда наш торрент специально для вас. Rutor.in неофициальное зеркало rutor. В случае если у Вас заблокирован rutor или вдруг Вы не можете на него зайти, то Вы без труда сможете скачать бесплатно и без рекламы последние новинки кино, игр, сериалов и прочего у нас, на Rutor.in. Не нужно использовать прокси, чтобы зайти на рутор, достаточно воспользоваться нашим ресурсом. Все новые фильмы, игры, сериалы, книги и музыка за 2013 и 2014 годы через торрент бесплатно. Скачивайте фильмы в хорошем качестве, игры для пк, xbox, playstation без регистрации. У нас вы найдете новые Зарубежные сериалы и Русские сериалы 2013, 2014, 2015 годов. Оставайтесь с нами, качайте любимые фильмы, игры, сериалы, книги и музыку.