img image001 image001 image001 image001 image001 image001 image001 image001 image001 image001 image001 image001 image001 image001 image001

Planets Sun Sun Sun
Статистика раздачи
Автор: PriZraK | Размер: 3.51 ГБ | Добавлен: 24 авг 2016
Раздают: 20    Качают: 6
Скачать торрент
Скачать торрент
Описание торрента

СообщениеДобавлено: 24 авг 2016 

Информация о фильме
Название: Дуда и Дада
Оригинальное название: Duda & Dada
Год выхода: 2014
Страна: Корея Южная
Жанр: Мультсериал, детский, семейный
Продолжительность: 23 х ~ 00:10:45
Перевод: Профессиональный дублированный
Режиссеры: Джион Ли, На Ян Квак, Бюнгсун Цой
О фильме: Дуда — маленький кротик. Дада — любопытная девочка. Вместе они познают мир вокруг себя и открывают тайны Неведанного Леса. Дада много путешествует на своем универсальном микроавтобусе по всему свету. Дуда мечтает стать первым в мире кротом-исследователем и путешественником.
1. Привет, Пинкар!
02. Мнимый больной
03. Звездочка, подожди меня!
04. Это секрет!
05. Не могу уснуть
06. Ангельская улыбка!
07. Катание на санках
08. Странный след
09. Почтальон на день
10. За рулем Пинкара
11. Великан Дуда
12. Сложно быть мамой
13. Слишком шумно!
14. Репетиция
15. Новый приятель
16. Загадай желание
17. Икота
18. Хочу стать моделью
19. Герой Неизведанного леса
20. Фея уборки
21. Детектив Дуда
22. Помощники Санты
23. Дуда-фотограф!



Доп. информация:
премьера (РФ): 23 мая 2016
Семпл


Файл
Формат: AVI
Качество: WEB-DLRip
Видео: 720x400 (1.80:1), 25 fps, XviD build 65 ~1602 kbps avg, 0.22 bit/pixel
Аудио: 48 kHz, AC3 Dolby Digital, 2/0 (L,R) ch, ~192.00 kbps avg
Субтитры: нет
10. За рулем Пинкара. XviD-merci-.avi
Формат : AVI
Формат/Информация : Audio Video Interleave
Размер файла : 139 Мбайт
Продолжительность : 10 м.
Общий поток : 1804 Кбит/сек
Программа кодирования : VirtualDubMod 1.5.10.3 | www.virtualdub-fr.org || (build 2550/release)
Библиотека кодирования : VirtualDubMod build 2550/release
Видео
Идентификатор : 0
Формат : MPEG-4 Visual
Профиль формата : Advanced Simple@L5
Параметр BVOP формата : 1
Параметр QPel формата : Нет
Параметр GMC формата : Без точки перехода
Параметр матрицы формата : Default (MPEG)
Идентификатор кодека : XVID
Идентификатор кодека/Подсказка : XviD
Продолжительность : 10 м.
Битрейт : 1602 Кбит/сек
Ширина : 720 пикселей
Высота : 400 пикселей
Соотношение сторон : 16:9
Частота кадров : 25,000 кадров/сек
Цветовое пространство : YUV
Субдискретизация насыщенности : 4:2:0
Битовая глубина : 8 бит
Тип развёртки : Прогрессивная
Метод сжатия : С потерями
Бит/(Пиксели*Кадры) : 0.222
Размер потока : 123 Мбайт (89%)
Библиотека кодирования : XviD 65
Аудио
Идентификатор : 1
Формат : AC-3
Формат/Информация : Audio Coding 3
Расширение режима : CM (complete main)
Параметр Endianness формата : Big
Идентификатор кодека : 2000
Продолжительность : 10 м.
Вид битрейта : Постоянный
Битрейт : 192 Кбит/сек
Каналы : 2 канала
Расположение каналов : Front: L R
Частота : 48,0 КГц
Частота кадров : 31,250 кадров/сек (1536 spf)
Метод сжатия : С потерями
Размер потока : 14,7 Мбайт (11%)
Выравнивание : Разделение по промежуткам
Продолжительность промежутка : 40 мс. (1,00 видеокадр)
Время предзагрузки промежутка : 500 мс.


Релиз от:
Автор релиза: /



   Похожие торренты   Торрент   Размер 
В этой теме нет новых непрочитанных сообщений. Дуда и Дада / Duda & Dada [01x01-23 из ?] (2014) WEB-DLRip от ExKinoRay | D

0 | 0

4.11 ГБ

В этой теме нет новых непрочитанных сообщений. Дуда и Дада / Duda & Dada [01x01-23 из ?] (2014) WEB-DLRip от ExKinoRay | D

18 | 1

3.12 ГБ

В этой теме нет новых непрочитанных сообщений. Дуда и Дада / Duda & Dada [01x01-23 из ?] (2014) WEB-DLRip 720p от ExKinoRay | D

49 | 3

2.95 ГБ

В этой теме нет новых непрочитанных сообщений. Дуда и Дада / Duda & Dada [01x01-23 из ?] (2014) WEB-DLRip 1080p от ExKinoRay | D

0 | 0

6.09 ГБ

В этой теме нет новых непрочитанных сообщений. Дуда и Дада / Duda & Dada [01x01-23 из ?] (2014) WEB-DLRip 1080p от ExKinoRay | D

3 | 6

5.14 ГБ

В этой теме нет новых непрочитанных сообщений. Дуда и Дада / Duda & Dada [01x01-23 из ?] (2014) WEB-DLRip 720p от ExKinoRay | D

0 | 0

3.51 ГБ

В этой теме нет новых непрочитанных сообщений. Дуда и Дада / Duda & Dada [01x01-23 из ?] (2014) WEB-DLRip 1080p от ExKinoRay | D

0 | 1

4.39 ГБ




Вы не можете начинать темы
Вы не можете отвечать на сообщения
Вы не можете редактировать свои сообщения
Вы не можете удалять свои сообщения
Вы не можете добавлять вложения

Перейти:  
Для Мосгорсуда, Роскомнадзора и рекламодателей: mosgorsud-torrent[собачка]yandex.ru
 Вход
ppkBB3cker v.2 © 2008-2014 @ PPK
[ Time : 0.021s | 15 Queries | GZIP : Off ]

Торрент трекер RUTOR.IN, Не можете зайти на rutor.org? Какой новый адрес рутор? Какое зеркало рутор? Не работает rutor.org и зеркала? Тогда наш торрент специально для вас. Rutor.in неофициальное зеркало rutor. В случае если у Вас заблокирован rutor или вдруг Вы не можете на него зайти, то Вы без труда сможете скачать бесплатно и без рекламы последние новинки кино, игр, сериалов и прочего у нас, на Rutor.in. Не нужно использовать прокси, чтобы зайти на рутор, достаточно воспользоваться нашим ресурсом. Все новые фильмы, игры, сериалы, книги и музыка за 2013 и 2014 годы через торрент бесплатно. Скачивайте фильмы в хорошем качестве, игры для пк, xbox, playstation без регистрации. У нас вы найдете новые Зарубежные сериалы и Русские сериалы 2013, 2014, 2015 годов. Оставайтесь с нами, качайте любимые фильмы, игры, сериалы, книги и музыку.