img image001 image001 image001 image001 image001 image001 image001 image001 image001 image001 image001 image001 image001 image001 image001

Planets Sun Sun Sun
Статистика раздачи
Автор: PriZraK | Размер: 5.04 ГБ | Добавлен: 24 авг 2016
Раздают: 18    Качают: 12
Скачать торрент
Скачать торрент
Описание торрента

СообщениеДобавлено: 24 авг 2016 

Информация о фильме
Название: Соник Бум
Оригинальное название: Sonic Boom
Год выхода: 2014
Страна: США, Франция, OuiDO! Productions, Sega of America
Жанр: Мультсериал, фэнтези, боевик, комедия, приключения
Продолжительность: 31 х ~ 00:11:07
Перевод: Профессиональный дублированный
Режиссеры: Эван Бейли, Донна Фридман Майер, Сандрин Нгуен
Роли озвучивали: Ника Футтерман, Коллин О’Шонесси, Синди Робинсон, Роджер Крэйг Смит, Трэвис Уиллингэм, Майк Поллок, Кирк Торнтон, Джеймс Хоран, Уолли Вингерт, Джеймс С. Бёрнс, ...
Роли дублировали: Даниил Эльдаров, ...
О фильме: События мультсериала разворачиваются в альтернативном мире, отличном от вселенной видеоигр. Каждая серия представляет собой отдельную историю с участием главных героев: ёжика Соника, лисёнка Тейлза, ехидны Наклза, ежихи Эми Роуз и барсучихи Стикс, противостоящих очередному коварному плану доктора Эггмана. В роли противников также выступят как знакомые по играм, так и совершенно новые персонажи.
01. Напарник
02. Приют для злодея
03. Трудности перевода
04. Бастер
05. Моя прекрасная Стикс
06. Экстремальное преображение
07. Двойной конец света
08. Яйцеголовые
09. Чувство вины
10. Куда делся Эггман
11. Робокорова
12. Нелегальный цирк
13. Невезучий Наклз
14. Метеорит
15. Эггман в депрессии
16. Случайный Злодей
17. Не судите меня
18. Соус Доктора Эггмана
19. Энергия бега
20. День Ежа
21. Спяший гигант
22. Храм Дружбы
23. Слаженные действия
27. У Эми
28. Посинеть от зависти
29. Поклятие косоглазого лося
30. Конкурс Чили-догов
31. Тайна закрытой двери
33. Эггман - режиссёр
44. Меня подставили
45. Битва роботов



Доп. информация:
премьера (мир) 8 ноября 2014, ...
Семпл


Файл
Формат: AVI
Качество: WEB-DLRip
Видео: 720x400 (1.80:1), 25 fps, XviD build 65 ~1600 kbps avg, 0.22 bit/pixel
Аудио: 48 kHz, AC3 Dolby Digital, 2/0 (L,R) ch, ~192.00 kbps avg
Субтитры: нет
06. Экстремальное преображение. XviD-merci-.avi
Формат : AVI
Формат/Информация : Audio Video Interleave
Размер файла : 144 Мбайт
Продолжительность : 11 м.
Общий поток : 1803 Кбит/сек
Программа кодирования : VirtualDubMod 1.5.10.3 | www.virtualdub-fr.org || (build 2550/release)
Библиотека кодирования : VirtualDubMod build 2550/release
Видео
Идентификатор : 0
Формат : MPEG-4 Visual
Профиль формата : Advanced Simple@L5
Параметр BVOP формата : 1
Параметр QPel формата : Нет
Параметр GMC формата : Без точки перехода
Параметр матрицы формата : Default (MPEG)
Идентификатор кодека : XVID
Идентификатор кодека/Подсказка : XviD
Продолжительность : 11 м.
Битрейт : 1601 Кбит/сек
Ширина : 720 пикселей
Высота : 400 пикселей
Соотношение сторон : 16:9
Частота кадров : 25,000 кадров/сек
Цветовое пространство : YUV
Субдискретизация насыщенности : 4:2:0
Битовая глубина : 8 бит
Тип развёртки : Прогрессивная
Метод сжатия : С потерями
Бит/(Пиксели*Кадры) : 0.222
Размер потока : 127 Мбайт (89%)
Библиотека кодирования : XviD 65
Аудио
Идентификатор : 1
Формат : AC-3
Формат/Информация : Audio Coding 3
Расширение режима : CM (complete main)
Параметр Endianness формата : Big
Идентификатор кодека : 2000
Продолжительность : 11 м.
Вид битрейта : Постоянный
Битрейт : 192 Кбит/сек
Каналы : 2 канала
Расположение каналов : Front: L R
Частота : 48,0 КГц
Частота кадров : 31,250 кадров/сек (1536 spf)
Метод сжатия : С потерями
Размер потока : 15,3 Мбайт (11%)
Выравнивание : Разделение по промежуткам
Продолжительность промежутка : 40 мс. (1,00 видеокадр)
Время предзагрузки промежутка : 500 мс.


Релиз от:
Автор релиза: /



   Похожие торренты   Торрент   Размер 
В этой теме нет новых непрочитанных сообщений. Соник Бум / Sonic Boom [01x01-31 из 52] (2014) WEB-DLRip от ExKinoRay | D

0 | 0

6.42 ГБ

В этой теме нет новых непрочитанных сообщений. Соник Бум / Sonic Boom [01x01-31 из 52] (2014) WEB-DLRip от ExKinoRay | D

5 | 8

5.57 ГБ

В этой теме нет новых непрочитанных сообщений. Соник Бум / Sonic Boom [01x01-31 из 52] (2014) WEB-DLRip от ExKinoRay | D

24 | 22

4.36 ГБ

В этой теме нет новых непрочитанных сообщений. Соник Бум / Sonic Boom [01x01-31 из 52] (2014) WEB-DLRip 1080p от ExKinoRay | D

20 | 12

6.78 ГБ

В этой теме нет новых непрочитанных сообщений. Соник Бум / Sonic Boom [01x01-31 из 52] (2014) WEB-DLRip 720p от ExKinoRay | D

0 | 0

5.04 ГБ

В этой теме нет новых непрочитанных сообщений. Соник Бум / Sonic Boom [01x01-31 из 52] (2014) WEB-DLRip 1080p от ExKinoRay | D

0 | 0

8.87 ГБ

В этой теме нет новых непрочитанных сообщений. Соник Бум / Sonic Boom [01x01-31 из 52] (2014) WEB-DLRip 1080p от ExKinoRay | D

8 | 2

5.74 ГБ




Вы не можете начинать темы
Вы не можете отвечать на сообщения
Вы не можете редактировать свои сообщения
Вы не можете удалять свои сообщения
Вы не можете добавлять вложения

Перейти:  
Для Мосгорсуда, Роскомнадзора и рекламодателей: mosgorsud-torrent[собачка]yandex.ru
 Вход
ppkBB3cker v.2 © 2008-2014 @ PPK
[ Time : 0.574s | 17 Queries | GZIP : Off ]

Торрент трекер RUTOR.IN, Не можете зайти на rutor.org? Какой новый адрес рутор? Какое зеркало рутор? Не работает rutor.org и зеркала? Тогда наш торрент специально для вас. Rutor.in неофициальное зеркало rutor. В случае если у Вас заблокирован rutor или вдруг Вы не можете на него зайти, то Вы без труда сможете скачать бесплатно и без рекламы последние новинки кино, игр, сериалов и прочего у нас, на Rutor.in. Не нужно использовать прокси, чтобы зайти на рутор, достаточно воспользоваться нашим ресурсом. Все новые фильмы, игры, сериалы, книги и музыка за 2013 и 2014 годы через торрент бесплатно. Скачивайте фильмы в хорошем качестве, игры для пк, xbox, playstation без регистрации. У нас вы найдете новые Зарубежные сериалы и Русские сериалы 2013, 2014, 2015 годов. Оставайтесь с нами, качайте любимые фильмы, игры, сериалы, книги и музыку.
cron