img image001 image001 image001 image001 image001 image001 image001 image001 image001 image001 image001 image001 image001 image001 image001

Planets Sun Sun Sun
Статистика раздачи
Автор: PriZraK | Размер: 4.37 ГБ | Добавлен: 25 авг 2016
Раздают: 32    Качают: 12
Скачать торрент
Скачать торрент
Описание торрента

СообщениеДобавлено: 25 авг 2016 



Информация о фильме
Название: Робинзон Крузо: Очень обитаемый остров
Оригинальное название: Robinson Crusoe
Год выхода: 2016
Жанр: мультфильм, комедия, приключения
Режиссер: Винсент Кестелут, Бен Стассен
В ролях: Маттиас Швайгхёфер, Кая Янар, Илька Бессин, Дитер Халлерворден, Айлин Тецель, Гада Аль-Акель, Берт Францке, Тобиас Лелле

О фильме:
Все знают историю о Робинзоне Крузо, попавшем на необитаемый остров. Однако, как же можно назвать его необитаемым, если он населен разнообразными веселыми животными и птицами? Они очень удивились, впервые встретив это странное существо, и даже приняли его за морское чудовище. Попугаю по кличке Вторник и его друзьям — хамелеону, тапиру и другим обитателям острова предстоит поближе познакомиться с незнакомым зверем «человеком» и вместе с ним пережить массу опасных и веселых приключений.



Страна: Франция, Бельгия
Студия: Illuminata Pictures, nWave Pictures, Studio Canal, uFilm
Продолжительность: 86 мин. / 01:26
Перевод: полное дублирование

Файл
Кодек: MPEG2
Качество: DVD5 (сжатый)
Видео: PAL 16:9 (720x576@1024x576) VBR 7126 Kbps, 25.000 fps
Аудио: Dolby AC3, 6 ch, 48.0 KHz, 448 Kbps
Субтитры: украинские

Исходник: Робинзон Крузо: Очень обитаемый остров / Robinson Crusoe (2016) DVD9 от New-Team | Лицензия
Удалены: предупреждающие надписи, анонсы (в меню кнопки затерты). Команды диска переписаны заново, оставлены два VTS.
Видео не сжималось!
Меню: статичное, недействующие кнопки затерты и закрыты.
Обработка и сжатие: DVD ReMake Pro + DVD Rebuilder + CCE SP2 [7 проходов] + Работа с меню (Adobe PhotoShop и MuxMan).
Автор релиза: J9-1000
Общее
Полное имя : D:Robinson Crusoe (2016) DVD5VIDEO_TSVTS_02_1.VOB
Формат : MPEG-PS
Размер файла : 1024 Мбайт
Продолжительность : 18 м.
Режим общего битрейта : Переменный
Общий поток : 7728 Кбит/сек
Видео
Идентификатор : 224 (0xE0)
Формат : MPEG Video
Версия формата : Version 2
Профиль формата : Main@Main
Параметр BVOP формата : Да
Параметр матрицы формата : По умолчанию
Параметр GOP формата : M=3, N=12
Продолжительность : 18 м.
Вид битрейта : Переменный
Битрейт : 7126 Кбит/сек
Максимальный битрейт : 8500 Кбит/сек
Ширина : 720 пикселей
Высота : 576 пикселей
Соотношение сторон : 16:9
Частота кадров : 25,000 кадров/сек
Стандарт вещания : PAL
Цветовое пространство : YUV
Субдискретизация насыщенности : 4:2:0
Битовая глубина : 8 бит
Тип развёртки : Прогрессивная
Метод сжатия : С потерями
Бит/(Пиксели*Кадры) : 0.687
Временной код первого кадра : 00:00:00:00
Оригинал временного кода : Group of pictures header
GOP, открыто/закрыто : Открыто
GOP, открыто/закрыто на первом кадре : Закрыто
Размер потока : 944 Мбайт (92%)
Аудио
Идентификатор : 189 (0xBD)-128 (0x80)
Формат : AC-3
Формат/Информация : Audio Coding 3
Расширение режима : CM (complete main)
Параметр Endianness формата : Big
Режим смешивания : DVD-Video
Продолжительность : 18 м.
Вид битрейта : Постоянный
Битрейт : 448 Кбит/сек
Каналы : 6 каналов
Расположение каналов : Front: L C R, Side: L R, LFE
Частота : 48,0 КГц
Частота кадров : 31,250 кадров/сек (1536 spf)
Метод сжатия : С потерями
Размер потока : 59,3 Мбайт (6%)
Текст
Идентификатор : 189 (0xBD)-32 (0x20)
Формат : RLE
Формат/Информация : Run-length encoding
Режим смешивания : DVD-Video
Задержка видео : 2 с. 440 мс.
Меню




   Похожие торренты   Торрент   Размер 
В этой теме нет новых непрочитанных сообщений. Робинзон Крузо: Очень обитаемый остров / Robinson Crusoe (2016) Blu-Ray RUS | Лицензия

114 | 50

15.89 ГБ

В этой теме нет новых непрочитанных сообщений. Робинзон Крузо: Очень обитаемый остров / Robinson Crusoe (2016) HDRip | D | iTunes

16537 | 697

1.37 ГБ

В этой теме нет новых непрочитанных сообщений. Робинзон Крузо: Очень обитаемый остров / Robinson Crusoe (2016) WEB-DLRip-AVC | iTunes

635 | 89

1.82 ГБ

В этой теме нет новых непрочитанных сообщений. Робинзон Крузо: Очень обитаемый остров / Robinson Crusoe (2016) WEB-DLRip-AVC | iTunes

213 | 29

680.48 МБ

В этой теме нет новых непрочитанных сообщений. Робинзон Крузо: Очень обитаемый остров / Robinson Crusoe (2016) WEB-DLRip | iTunes

13334 | 224

1.37 ГБ

В этой теме нет новых непрочитанных сообщений. Робинзон Крузо: Очень обитаемый остров / Robinson Crusoe (2016) WEB-DL 720p | iTunes

1593 | 28

2.71 ГБ

В этой теме нет новых непрочитанных сообщений. Робинзон Крузо: Очень обитаемый остров / Robinson Crusoe (2016) HDRip | КПК | iTunes

289 | 18

408.79 МБ




Вы не можете начинать темы
Вы не можете отвечать на сообщения
Вы не можете редактировать свои сообщения
Вы не можете удалять свои сообщения
Вы не можете добавлять вложения

Перейти:  
Для Мосгорсуда, Роскомнадзора и рекламодателей: mosgorsud-torrent[собачка]yandex.ru
 Вход
ppkBB3cker v.2 © 2008-2014 @ PPK
[ Time : 0.033s | 15 Queries | GZIP : Off ]

Торрент трекер RUTOR.IN, Не можете зайти на rutor.org? Какой новый адрес рутор? Какое зеркало рутор? Не работает rutor.org и зеркала? Тогда наш торрент специально для вас. Rutor.in неофициальное зеркало rutor. В случае если у Вас заблокирован rutor или вдруг Вы не можете на него зайти, то Вы без труда сможете скачать бесплатно и без рекламы последние новинки кино, игр, сериалов и прочего у нас, на Rutor.in. Не нужно использовать прокси, чтобы зайти на рутор, достаточно воспользоваться нашим ресурсом. Все новые фильмы, игры, сериалы, книги и музыка за 2013 и 2014 годы через торрент бесплатно. Скачивайте фильмы в хорошем качестве, игры для пк, xbox, playstation без регистрации. У нас вы найдете новые Зарубежные сериалы и Русские сериалы 2013, 2014, 2015 годов. Оставайтесь с нами, качайте любимые фильмы, игры, сериалы, книги и музыку.