img image001 image001 image001 image001 image001 image001 image001 image001 image001 image001 image001 image001 image001 image001 image001

Planets Sun Sun Sun
Статистика раздачи
Автор: PriZraK | Размер: 8.24 ГБ | Добавлен: 26 авг 2016
Раздают: 65    Качают: 25
Скачать торрент
Скачать торрент
Описание торрента

СообщениеДобавлено: 26 авг 2016 


Спецагент Арчер / Archer

Год выпуска: 2016
Страна: США
Жанр: комедия, детектив
Продолжительность: ~00:22:00
Перевод: Профессиональный (многоголосый закадровый) | Кубик в Кубе & Бяко Рекордс
Режиссёры:
Адам Рид, Брайан Фордни
Роли озвучивали:
Х. Джон Бенжамин (Стерлинг Мэлори Арчер), Аиша Тайлер (Лана Кейн), Крис Парнелл (Сирил Фиггис), Джессика Уолтер (Мэлори Арчер), Эмбер Нэш (Пэм), Джуди Грир (Шерил Тант), Адам Рид (Рей Жиллет), Лаки Йэтс (Кригер), Дэйв Уиллис (Барри Диллон), Мэри МаДональд-Льюис (Вероника Дин), Пэттон Освальт (Алан Шапиро)
Описание:
В международном шпионском агенстве ISIS любой мировой кризис — лишь предлог для высококлассных секретных агентов посоревноваться между собой в обмане и предательстве. Главным героем мультсериала является спецагент Стерлинг Арчер, известный также под кодовым именем «Герцогиня». На службе Арчеру приходится мириться со своей эксцентричной мамашей/начальницей — Мэлори, бывшей подружкой Ланой, озабоченной секретаршей Шерил и другими «интересными личностями»
Семпл
Качество: WEB-DL 1080p
Формат: MKV
Видео: 1920x1080 (16:9), H.264, ~4 800 Kbps, 23.976 fps
Аудио 1: AC3, 48.0 KHz, 6 ch, 384 kbps RUS
Аудио 2: AC3, 48.0 KHz, 6 ch, 384 kbps ENG
Субтитры: русские, английские

Озвучка - Руслан Габидуллин, Константин Погодаев, Ольга Кравцова, Анна Тух (Кубик в кубе & Бяко Рекордс), перевод - Юрий Башенкер.
Субтитры - aircatmat, Eldjernon, karika, Muerte_Dolorosa, Asmund, nastyafisa1411 (Нотабеноид), синхронизация - Yipikaye112.
Код:
Общее
Уникальный идентификатор                 : 180468832034155400217888244182335503743 (0x87C508633E06209EB980ABA4BAAE3D7F)
Полное имя                               : D:ЗагрузкиtorrentArcher.S07.WEB-DL.1080pArcher.S01E02.WEB-DL.1080p.mkv
Формат                                   : Matroska
Версия формата                           : Version 4 / Version 2
Размер файла                             : 917 Мбайт
Продолжительность                        : 22 м.
Общий поток                              : 5711 Кбит/сек
Дата кодирования                         : UTC 2016-05-23 12:36:12
Программа кодирования                    : mkvmerge v6.7.0 ('Back to the Ground') 64bit built on Jan  8 2014 15:10:52
Библиотека кодирования                   : libebml v1.3.0 + libmatroska v1.4.1
Видео
Идентификатор                            : 1
Формат                                   : AVC
Формат/Информация                        : Advanced Video Codec
Профиль формата                          : High@L4
Параметр CABAC формата                   : Да
Параметр ReFrames формата                : 4 кадра
Идентификатор кодека                     : V_MPEG4/ISO/AVC
Продолжительность                        : 22 м.
Битрейт                                  : 4829 Кбит/сек
Ширина                                   : 1920 пикселей
Высота                                   : 1080 пикселей
Соотношение сторон                       : 16:9
Режим частоты кадров                     : Постоянный
Частота кадров                           : 23,976 кадра/сек
Цветовое пространство                    : YUV
Субдискретизация насыщенности            : 4:2:0
Битовая глубина                          : 8 бит
Тип развёртки                            : Прогрессивная
Бит/(Пиксели*Кадры)                      : 0.097
Размер потока                            : 775 Мбайт (85%)
Язык                                     : English
Default                                  : Да
Forced                                   : Нет
Цветовой диапазон                        : Limited
Основные цвета                           : BT.709
Характеристики трансфера                 : BT.709
Коэффициенты матрицы                     : BT.709
Аудио #1
Идентификатор                            : 2
Формат                                   : AC-3
Формат/Информация                        : Audio Coding 3
Расширение режима                        : CM (complete main)
Параметр Endianness формата              : Big
Идентификатор кодека                     : A_AC3
Продолжительность                        : 22 м.
Вид битрейта                             : Постоянный
Битрейт                                  : 384 Кбит/сек
Каналы                                   : 6 каналов
Расположение каналов                     : Front: L C R, Side: L R, LFE
Частота                                  : 48,0 КГц
Частота кадров                           : 31,250 кадров/сек (1536 spf)
Метод сжатия                             : С потерями
Размер потока                            : 61,6 Мбайт (7%)
Язык                                     : Russian
Default                                  : Да
Forced                                   : Нет
Аудио #2
Идентификатор                            : 3
Формат                                   : AC-3
Формат/Информация                        : Audio Coding 3
Расширение режима                        : CM (complete main)
Параметр Endianness формата              : Big
Идентификатор кодека                     : A_AC3
Продолжительность                        : 22 м.
Вид битрейта                             : Постоянный
Битрейт                                  : 384 Кбит/сек
Каналы                                   : 6 каналов
Расположение каналов                     : Front: L C R, Side: L R, LFE
Частота                                  : 48,0 КГц
Частота кадров                           : 31,250 кадров/сек (1536 spf)
Метод сжатия                             : С потерями
Размер потока                            : 61,6 Мбайт (7%)
Язык                                     : English
Default                                  : Нет
Forced                                   : Нет
Текст #1
Идентификатор                            : 4
Формат                                   : UTF-8
Идентификатор кодека                     : S_TEXT/UTF8
Идентификатор кодека/Информация          : UTF-8 Plain Text
Язык                                     : Russian
Default                                  : Нет
Forced                                   : Нет
Текст #2
Идентификатор                            : 5
Формат                                   : UTF-8
Идентификатор кодека                     : S_TEXT/UTF8
Идентификатор кодека/Информация          : UTF-8 Plain Text
Язык                                     : English
Default                                  : Нет
Forced                                   : Нет



   Похожие торренты   Торрент   Размер 
В этой теме нет новых непрочитанных сообщений. Спецагент Арчер / Archer [S07] (2016) WEB-DL 1080p | Кубик в Кубе & Бяко Рекордс

14 | 2

8.24 ГБ

В этой теме нет новых непрочитанных сообщений. Спецагент Арчер / Archer [S01-06] (2009-2015) WEB-DLRip | Кубик в кубе & Бяко Рекордс

92 | 104

19.63 ГБ

В этой теме нет новых непрочитанных сообщений. Спецагент Арчер / Archer [S01-06] (2009-2015) WEB-DL 720p | Кубик в кубе & Бяко Рекордс

164 | 189

42.11 ГБ

В этой теме нет новых непрочитанных сообщений. Арчер / Archer [07х01-04 из 13] (2016) WEB-DL 1080p | Кубик в кубе & Бяко Рекордс

4 | 2

3.42 ГБ

В этой теме нет новых непрочитанных сообщений. Арчер / Archer [07х01-04 из 13] (2016) WEB-DL 1080p | Кубик в кубе & Бяко Рекордс

4 | 4

3.42 ГБ

В этой теме нет новых непрочитанных сообщений. Арчер / Archer [07х01-06 из 13] (2016) WEB-DL 1080p | Кубик в кубе & Бяко Рекордс

71 | 28

5.09 ГБ

В этой теме нет новых непрочитанных сообщений. Арчер / Archer [s05] (2014) WEB-DL 720p | Кубик в Кубе & БЯКО Рекордс

20 | 6

7.23 ГБ




Вы не можете начинать темы
Вы не можете отвечать на сообщения
Вы не можете редактировать свои сообщения
Вы не можете удалять свои сообщения
Вы не можете добавлять вложения

Перейти:  
Для Мосгорсуда, Роскомнадзора и рекламодателей: mosgorsud-torrent[собачка]yandex.ru
 Вход
ppkBB3cker v.2 © 2008-2014 @ PPK
[ Time : 0.021s | 15 Queries | GZIP : Off ]

Торрент трекер RUTOR.IN, Не можете зайти на rutor.org? Какой новый адрес рутор? Какое зеркало рутор? Не работает rutor.org и зеркала? Тогда наш торрент специально для вас. Rutor.in неофициальное зеркало rutor. В случае если у Вас заблокирован rutor или вдруг Вы не можете на него зайти, то Вы без труда сможете скачать бесплатно и без рекламы последние новинки кино, игр, сериалов и прочего у нас, на Rutor.in. Не нужно использовать прокси, чтобы зайти на рутор, достаточно воспользоваться нашим ресурсом. Все новые фильмы, игры, сериалы, книги и музыка за 2013 и 2014 годы через торрент бесплатно. Скачивайте фильмы в хорошем качестве, игры для пк, xbox, playstation без регистрации. У нас вы найдете новые Зарубежные сериалы и Русские сериалы 2013, 2014, 2015 годов. Оставайтесь с нами, качайте любимые фильмы, игры, сериалы, книги и музыку.