img image001 image001 image001 image001 image001 image001 image001 image001 image001 image001 image001 image001 image001 image001 image001

Planets Sun Sun Sun
Статистика раздачи
Автор: PriZraK | Размер: 4.6 ГБ | Добавлен: 28 авг 2016
Раздают: 159    Качают: 38
Скачать торрент
Скачать торрент
Описание торрента

СообщениеДобавлено: 28 авг 2016 


Невероятный Блинки Билл / Blinky Bill the Movie
Страна: Австралия США
Производство: Assemblage Entertainment, Flying Bark Productions, Telegael
Год выпуска: 2015
Жанр: мультфильм, приключения, семейный
Продолжительность: 01:30:57
Режиссеры: Дин Тейлор, Ноэль Клири, Алекс Стадерманн
Автор сценария: Фин Эдквист
В ролях: Тони Коллетт, Руфус Сьюэлл, Робин МакЛиви, Дэвид Уэнэм, Райан Квантен, Ричард Роксбург, Бэрри Хамфриз
Роли дублировали: Ольга Голованова, Александр Груздев, Татьяна Лазарева, Иван Калинин, Александр Олешко
Описание: Блинки Билл — очаровательный и озорной медвежонок-коала, который никого не боится и никогда не сдаётся. Вместе с друзьями — весёлой ящерицей и добрыми страусами Эму — ему надо преодолеть миллион опасностей в диких джунглях, чтобы найти пропавшего отца. Новые герои, яркий красочный мир экзотического континента и настоящее большое приключение..!

Перевод: Профессиональный (полное дублирование) | iTunes
Субтитры: нет

Качество: BDRip 1080p
Формат: МКV
Видео кодек: AVC
Аудио кодек: АС3 | DTS
Видео: 1920x1080 (16:9), 24.000 fps, MPEG-4 AVC ~5 342 kbps avg
Аудио №1: 48.0 kHz, AC3 Dolby Digital, 3/2 (L,C,R,l,r) + LFE ch, ~384 kbps | RUS
Аудио №2: 48.0 kHz, Digital Theater Systems, 3/2 (L,C,R,l,r) + LFE ch, ~1509 kbps | ENG
Дата премьеры (мир): 21 августа 2015
Дата премьеры (РФ): 28 июля 2016, «Экспонента»

General
Уникальный идентификатор : 213417585202858881824456488798398910350 (0xA08EBB574058C8F1BC6532BD99030F8E)
Полное имя : HeBepoyatnyi.BLyHky.BiLy.2015.D.1080p.mkv
Формат : Matroska
Версия формата : Version 4 / Version 2
Размер файла : 4,60 Гбайт
Продолжительность : 1 ч. 30 м.
Общий поток : 7237 Кбит/сек
Дата кодирования : UTC 2016-08-27 07:27:26
Программа кодирования : mkvmerge v8.3.0 ('Over the Horizon') 64bit
Библиотека кодирования : libebml v1.3.1 + libmatroska v1.4.2
Видео
Идентификатор : 1
Формат : AVC
Формат/Информация : Advanced Video Codec
Профиль формата : High@L4.1
Параметр CABAC формата : Да
Параметр ReFrames формата : 4 кадра
Идентификатор кодека : V_MPEG4/ISO/AVC
Битрейт : 5342 Кбит/сек
Ширина : 1920 пикселей
Высота : 1080 пикселей
Соотношение сторон : 16:9
Режим частоты кадров : Переменный
Частота кадров в оригинале : 24,000 кадра/сек
Цветовое пространство : YUV
Субдискретизация насыщенности : 4:2:0
Битовая глубина : 8 бит
Тип развёртки : Прогрессивная
Бит/(Пиксели*Кадры) : 0.107
Библиотека кодирования : x264 core 148 r2665 a01e339
Настройки программы : cabac=1 / ref=4 / deblock=1:0:0 / analyse=0x3:0x133 / me=umh / subme=8 / psy=1 / psy_rd=1.00:0.00 / mixed_ref=1 / me_range=16 / chroma_me=1 / trellis=1 / 8x8dct=1 / cqm=0 / deadzone=21,11 / fast_pskip=0 / chroma_qp_offset=-2 / threads=12 / lookahead_threads=2 / sliced_threads=0 / nr=0 / decimate=1 / interlaced=0 / bluray_compat=0 / constrained_intra=0 / bframes=3 / b_pyramid=2 / b_adapt=1 / b_bias=0 / direct=1 / weightb=1 / open_gop=0 / weightp=2 / keyint=250 / keyint_min=23 / scenecut=40 / intra_refresh=0 / rc_lookahead=40 / rc=2pass / mbtree=1 / bitrate=5342 / ratetol=1.0 / qcomp=0.60 / qpmin=0 / qpmax=69 / qpstep=4 / cplxblur=20.0 / qblur=0.5 / ip_ratio=1.40 / aq=1:1.00
Язык : English
Default : Да
Forced : Нет
Аудио #1
Идентификатор : 2
Формат : AC-3
Формат/Информация : Audio Coding 3
Расширение режима : CM (complete main)
Параметр Endianness формата : Big
Идентификатор кодека : A_AC3
Продолжительность : 1 ч. 30 м.
Вид битрейта : Постоянный
Битрейт : 384 Кбит/сек
Каналы : 6 каналов
Расположение каналов : Front: L C R, Side: L R, LFE
Частота : 48,0 КГц
Частота кадров : 31,250 кадров/сек (1536 spf)
Метод сжатия : С потерями
Размер потока : 250 Мбайт (5%)
Язык : Russian
Default : Да
Forced : Нет
Аудио #2
Идентификатор : 3
Формат : DTS
Формат/Информация : Digital Theater Systems
Режим : 16
Параметр Endianness формата : Big
Идентификатор кодека : A_DTS
Продолжительность : 1 ч. 30 м.
Вид битрейта : Постоянный
Битрейт : 1509 Кбит/сек
Каналы : 6 каналов
Расположение каналов : Front: L C R, Side: L R, LFE
Частота : 48,0 КГц
Частота кадров : 93,750 кадра/сек (512 spf)
Битовая глубина : 16 бит
Метод сжатия : С потерями
Размер потока : 982 Мбайт (21%)
Язык : English
Default : Нет
Forced : Нет




   Похожие торренты   Торрент   Размер 
В этой теме нет новых непрочитанных сообщений. Невероятный Блинки Билл / Blinky Bill the Movie (2015) BDRip 720p | iTunes

152 | 43

3.51 ГБ

В этой теме нет новых непрочитанных сообщений. Невероятный Блинки Билл / Blinky Bill the Movie (2015) BDRip 1080p | L

109 | 10

6.19 ГБ

В этой теме нет новых непрочитанных сообщений. Невероятный Блинки Билл / Blinky Bill the Movie (2015) HDRip | iTunes

408 | 90

1.37 ГБ

В этой теме нет новых непрочитанных сообщений. Невероятный Блинки Билл / Blinky Bill the Movie (2015) HDRip от MegaPeer | iTunes

61 | 3

742.96 МБ

В этой теме нет новых непрочитанных сообщений. Невероятный Блинки Билл / Blinky Bill the Movie (2015) HDRip | L

586 | 39

1.37 ГБ

В этой теме нет новых непрочитанных сообщений. Невероятный Блинки Билл / Blinky Bill the Movie (2015) HDRip | звук с TS

57 | 7

1.37 ГБ

В этой теме нет новых непрочитанных сообщений. Блинки / Плохой Робот / Blinky TM / Bad Robot (2011) BDRip 1080p

8 | 4

708.67 МБ




Вы не можете начинать темы
Вы не можете отвечать на сообщения
Вы не можете редактировать свои сообщения
Вы не можете удалять свои сообщения
Вы не можете добавлять вложения

Перейти:  
Для Мосгорсуда, Роскомнадзора и рекламодателей: mosgorsud-torrent[собачка]yandex.ru
 Вход
ppkBB3cker v.2 © 2008-2014 @ PPK
[ Time : 0.070s | 14 Queries | GZIP : Off ]

Торрент трекер RUTOR.IN, Не можете зайти на rutor.org? Какой новый адрес рутор? Какое зеркало рутор? Не работает rutor.org и зеркала? Тогда наш торрент специально для вас. Rutor.in неофициальное зеркало rutor. В случае если у Вас заблокирован rutor или вдруг Вы не можете на него зайти, то Вы без труда сможете скачать бесплатно и без рекламы последние новинки кино, игр, сериалов и прочего у нас, на Rutor.in. Не нужно использовать прокси, чтобы зайти на рутор, достаточно воспользоваться нашим ресурсом. Все новые фильмы, игры, сериалы, книги и музыка за 2013 и 2014 годы через торрент бесплатно. Скачивайте фильмы в хорошем качестве, игры для пк, xbox, playstation без регистрации. У нас вы найдете новые Зарубежные сериалы и Русские сериалы 2013, 2014, 2015 годов. Оставайтесь с нами, качайте любимые фильмы, игры, сериалы, книги и музыку.