img image001 image001 image001 image001 image001 image001 image001 image001 image001 image001 image001 image001 image001 image001 image001

Planets Sun Sun Sun
Статистика раздачи
Автор: PriZraK | Размер: 12.27 ГБ | Добавлен: 03 сен 2016
Раздают: 21    Качают: 60
Скачать торрент
Скачать торрент
Описание торрента

СообщениеДобавлено: 03 сен 2016 


Информация о фильме
Название: Звёздная принцесса и силы зла
Оригинальное название: Star vs the Forces of Evil
Год выхода: 2014-2015
Жанр: семейный, комедия, приключения
Режиссер: Дэвид Вассон / David Wasson
В ролях: Укажите актеров, через запятую
О фильме:
Мультсериал повествует о весёлой принцессе по имени Стар Баттерфлай, которой недавно передали по наследству волшебную палочку, но из-за отсутствия опыта ей пользоваться - родители Стар сослали дочь на Землю, для проживания в семейной паре Диазов с их сыном по имени Марко. Стар сражается со злодеями из разных измерений, которые жаждут заполучить её палочку и использовать в личных целях.
Мультсериал получился крайне необычным - создатели смело креативничали с сериями, придумывая всё новые и новые заклинания для волшебной палочки.

Страна:США
Студия: Disney
Продолжительность: ~22 минуты/серия
Перевод: 1 - Профессиональный (дублированный) [Кириллица]
Перевод: 2 - Профессиональный (двухголосый закадровый) [Cactus Team]
Перевод: 3 - Любительский (многоголосый закадровый) [FRT Sora]
Файл
Кодек: V_MPEG4/ISO/AVC
Качество: WEB-DLRip 1080p
Видео: 23.976 fps, 1920x1080, ~5500kbps
Звук:
Аудио: AC3, 48кгц, 2.0, 192kbps
Аудио 2: AC3, 48кгц, 2.0, 192kbps
Аудио 3: AC3, 48кгц, 2.0, 192kbps
Аудио 4: AC3, 48кгц, 2.0, 192kbps
Субтитры:
1- Русский, в составе контейнера
2- Английский, в составе контейнера
Доп. информация: 2 неофициальных перевода + официальная озвучка + русские и английские субтитры под не пережатую видео дорожку
Релиз от:
-----Метеорит Фантазий-----
Сэмпл
01 - Star Comes to Earth & Party With a Pony
02 - Match Maker & School Spirit
03 - Monster Arm & The Other Exchange Student
04 - Cheer Up Star & Quest Buy
05 - Diaz Family Vacation & Brittneys Party
06 - Mewberty & Pixtopia
07 - Lobster Claws & Sleep Spells
08 - Blood Moon Ball & Fortune Cookies
09 - Freeze Day & Royal Pain
10 - St. Olga's Reform School for Wayward Princesses
11 - Mewnipendance Day & The Banagic Incident
12 - Interdimensional Field Trip & Marco Grows A Beard
13 - Storm The Castle
Общее
Уникальный идентификатор : 251857460614102843642340972237140942364 (0xBD79FB85DE07A1C2B8683C66E8B65E1C)
Полное имя : I:Ми ТерещенкозагрузкисериалыСтар против сил злаStar vs. the Forces of Evil S1S01E01 Star Comes to Earth. Party With a Pony.mkv
Формат : Matroska
Версия формата : Version 4 / Version 2
Размер файла : 1011 Мбайт
Продолжительность : 22 м.
Общий поток : 6392 Кбит/сек
Дата кодирования : UTC 2016-08-16 16:11:14
Программа кодирования : mkvmerge v9.1.0 ('Little Earthquakes') 64bit
Библиотека кодирования : libebml v1.3.3 + libmatroska v1.4.4
Видео
Идентификатор : 1
Формат : AVC
Формат/Информация : Advanced Video Codec
Профиль формата : High@L4
Параметр CABAC формата : Да
Параметр ReFrames формата : 4 кадра
Идентификатор кодека : V_MPEG4/ISO/AVC
Продолжительность : 22 м.
Битрейт : 5211 Кбит/сек
Ширина : 1920 пикселей
Высота : 1080 пикселей
Соотношение сторон : 16:9
Режим частоты кадров : Постоянный
Частота кадров : 23,976 (24000/1001) кадра/сек
Цветовое пространство : YUV
Субдискретизация насыщенности : 4:2:0
Битовая глубина : 8 бит
Тип развёртки : Прогрессивная
Бит/(Пиксели*Кадры) : 0.105
Размер потока : 824 Мбайт (82%)
Язык : English
Default : Да
Forced : Нет
Цветовой диапазон : Limited
Основные цвета : BT.709
Характеристики трансфера : BT.709
Коэффициенты матрицы : BT.709
Аудио #1
Идентификатор : 2
Формат : A_AC3
Формат/Информация : Advanced Audio Codec
Профиль формата : LC
Идентификатор кодека : AC-3
Продолжительность : 22 м.
Битрейт : 192 Кбит/сек
Каналы : 2 канала
Расположение каналов : Front: L R
Частота : 48,0 КГц
Частота кадров : 46,875 кадров/сек (1024 spf)
Метод сжатия : С потерями
Размер потока : 24,4 Мбайт (2%)
Заголовок : Без перевода
Язык : English
Default : Нет
Forced : Нет
Аудио #2
Идентификатор : 3
Формат : AC-3
Формат/Информация : Audio Coding 3
Расширение режима : CM (complete main)
Параметр Endianness формата : Big
Идентификатор кодека : A_AC3
Продолжительность : 22 м.
Вид битрейта : Постоянный
Битрейт : 192 Кбит/сек
Каналы : 2 канала
Расположение каналов : Front: L R
Частота : 48,0 КГц
Частота кадров : 31,250 кадров/сек (1536 spf)
Метод сжатия : С потерями
Размер потока : 30,4 Мбайт (3%)
Заголовок : DVO - Cactus Team
Язык : Russian
Default : Нет
Forced : Нет
Аудио #3
Идентификатор : 4
Формат : AC-3
Формат/Информация : Audio Coding 3
Расширение режима : CM (complete main)
Параметр Endianness формата : Big
Идентификатор кодека : A_AC3
Продолжительность : 22 м.
Вид битрейта : Постоянный
Битрейт : 192 Кбит/сек
Каналы : 2 канала
Расположение каналов : Front: L R
Частота : 48,0 КГц
Частота кадров : 31,250 кадров/сек (1536 spf)
Метод сжатия : С потерями
Размер потока : 101 Мбайт (10%)
Заголовок : Disney
Язык : Russian
Default : Нет
Forced : Нет
Аудио #4
Идентификатор : 5
Формат : AC-3
Формат/Информация : Audio Coding 3
Расширение режима : CM (complete main)
Параметр Endianness формата : Big
Идентификатор кодека : A_AC3
Продолжительность : 22 м.
Вид битрейта : Постоянный
Битрейт : 192 Кбит/сек
Каналы : 2 канала
Расположение каналов : Front: L R
Частота : 48,0 КГц
Частота кадров : 31,250 кадров/сек (1536 spf)
Метод сжатия : С потерями
Задержка видео : 3 с. 995 мс.
Размер потока : 30,3 Мбайт (3%)
Заголовок : FRT Sora
Язык : Russian
Default : Да
Forced : Нет
Текст #1
Идентификатор : 6
Формат : UTF-8
Идентификатор кодека : S_TEXT/UTF8
Идентификатор кодека/Информация : UTF-8 Plain Text
Продолжительность : 22 м.
Битрейт : 76 бит/сек
Count of elements : 491
Размер потока : 12,4 Кбайт (0%)
Заголовок : Английские субтитры
Язык : English
Default : Нет
Forced : Нет
Текст #2
Идентификатор : 7
Формат : ASS
Идентификатор кодека : S_TEXT/ASS
Идентификатор кодека/Информация : Advanced Sub Station Alpha
Продолжительность : 21 м.
Битрейт : 161 бит/сек
Count of elements : 322
Метод сжатия : Без потерь
Размер потока : 25,5 Кбайт (0%)
Заголовок : Русские субтитры
Язык : Russian
Default : Нет
Forced : Нет



   Похожие торренты   Торрент   Размер 
В этой теме нет новых непрочитанных сообщений. Звёздная Принцесса и Силы Зла / Star vs the Forces of Evil [S01] (2014-2015) WEB-DLRip 1080p

37 | 15

11.42 ГБ

В этой теме нет новых непрочитанных сообщений. Звёздная принцесса и силы зла / Star vs the Forces of Evil [s01] (2015) WEB-DLRip от ExKinoRay | D

41 | 1

3.5 ГБ

В этой теме нет новых непрочитанных сообщений. Звёздная принцесса и силы зла / Star vs the Forces of Evil [s02х01-09 из 14] (2016) WEB-DLRip от ExKinoRay | D

3 | 2

2.52 ГБ

В этой теме нет новых непрочитанных сообщений. Звёздная принцесса и силы зла / Star vs the Forces of Evil [02х01-10,12-19,21-22 из 22] (2016-2017) WEB-DLRip от ExKinoRay | D

28 | 22

5.59 ГБ

В этой теме нет новых непрочитанных сообщений. Стар против Сил Зла / Star vs the Forces of Evil [s01] (2015) WEB-DLRip от ExKinoRay | L2

35 | 5

3.5 ГБ

В этой теме нет новых непрочитанных сообщений. Стар против Сил Зла / Star vs the Forces of Evil [s02] (2016) WEB-DLRip от ExKinoRay | L2

2 | 8

3.9 ГБ

В этой теме нет новых непрочитанных сообщений. Стар против Сил Зла / Star vs the Forces of Evil [s02x01-11 из 14)] (2016) WEB-DLRip от ExKinoRay | L2

2 | 2

3.06 ГБ




Вы не можете начинать темы
Вы не можете отвечать на сообщения
Вы не можете редактировать свои сообщения
Вы не можете удалять свои сообщения
Вы не можете добавлять вложения

Перейти:  
Для Мосгорсуда, Роскомнадзора и рекламодателей: mosgorsud-torrent[собачка]yandex.ru
 Вход
ppkBB3cker v.2 © 2008-2014 @ PPK
[ Time : 0.044s | 15 Queries | GZIP : Off ]

cron