img image001 image001 image001 image001 image001 image001 image001 image001 image001 image001 image001 image001 image001 image001 image001

Planets Sun Sun Sun
Статистика раздачи
Автор: PriZraK | Размер: 1.36 ГБ | Добавлен: 19 сен 2016
Раздают: 15173    Качают: 472
Скачать торрент
Скачать торрент
Описание торрента

СообщениеДобавлено: 19 сен 2016 


Информация о фильме
Название: Тайная жизнь домашних животных
Оригинальное название: The Secret Life of Pets
Год выхода: 2016
Жанр: Мультфильм, комедия, семейный
Режиссер: Ярроу Чейни, Крис Рено
В ролях: Луис С.К., Эрик Стоунстрит, Кевин Харт, Дженни Слейт, Элли Кемпер, Альберт Брукс, Лэйк Белл, Дэна Карви, Хэннибал Бёресс, Бобби Мойнахан
О фильме:
Задумывались ли Вы когда-нибудь о том, чем занимается Ваш домашний любимец, когда Вы уходите по делам? Спит или дурачится со своими игрушками? Есть из своей мисочки или ждёт Вас у порога? Ха-ха! Да вот ещё! По правде, у зверья своя жизнь, в которой события накаляются не хуже, чем у людей. Терьер Макс всегда наслаждался любовью своих хозяев, пока в семье не появился Дюк. Это непородистая дворняга быстро завоевала признание домочадцев, потеснив Макса. Но соперничество продлилось недолго – стало известно, что дружелюбный на первый взгляд кролик формирует армию зверей, которых вышвырнули хозяева. Обиженные людьми животные планируют отомстить бывшим хозяевам, а также тому зверью, которое всё ещё преданно двуногим. Как поведут себя одомашненные животные? Их завербуют в ряды мстителей или они будут стоять за хозяев? Эта подлинная история о досуге животных заставит человека хорошенько подумать, прежде чем отказываться от питомца.

Страна: Япония, США
Продолжительность: 01:26:25
Перевод: Профессиональный (полное дублирование) | Line

Файл
Формат: AVI
Качество: HDTVRip
Видео: XviD build 73, 2055 Kbps, 720x384, 29.970 fps
Звук: AC3, 2 ch, 192 Kbps
Субтитры: Корейские (на надписи)
Семпл
General
Complete name : F:ÇàâåðøåííûåThe.Secret.Life.of.Pets.2016.D.HDTVRip.avi
Format : AVI
Format/Info : Audio Video Interleave
File size : 1.36 GiB
Duration : 1h 26mn
Overall bit rate : 2 259 Kbps
Writing application : VirtualDubMod 1.5.10.3 | www.virtualdub-fr.org || (build 2550/release)
Writing library : VirtualDubMod build 2550/release
Video
ID : 0
Format : MPEG-4 Visual
Format profile : Advanced Simple@L5
Format settings, BVOP : 1
Format settings, QPel : No
Format settings, GMC : No warppoints
Format settings, Matrix : Custom
Codec ID : XVID
Codec ID/Hint : XviD
Duration : 1h 26mn
Bit rate : 2 055 Kbps
Width : 720 pixels
Height : 384 pixels
Display aspect ratio : 1.875
Frame rate : 29.970 fps
Color space : YUV
Chroma subsampling : 4:2:0
Bit depth : 8 bits
Scan type : Progressive
Compression mode : Lossy
Bits/(Pixel*Frame) : 0.248
Stream size : 1.24 GiB (91%)
Writing library : XviD 73
Audio
ID : 1
Format : AC-3
Format/Info : Audio Coding 3
Mode extension : CM (complete main)
Codec ID : 2000
Duration : 1h 26mn
Bit rate mode : Constant
Bit rate : 192 Kbps
Channel(s) : 2 channels
Channel positions : Front: L R
Sampling rate : 48.0 KHz
Bit depth : 16 bits
Compression mode : Lossy
Stream size : 119 MiB (9%)
Alignment : Split accross interleaves
Interleave, duration : 33 ms (1.00 video frame)
Interleave, preload duration : 500 ms




   Похожие торренты   Торрент   Размер 
В этой теме нет новых непрочитанных сообщений. Тайная жизнь домашних животных / The Secret Life of Pets (2016) HDTVRip-AVC | Line

3537 | 120

1.23 ГБ

В этой теме нет новых непрочитанных сообщений. Тайная жизнь домашних животных / The Secret Life of Pets (2016) HDTVRip-AVC от Vovan366 | Line

8 | 6

744.23 МБ

В этой теме нет новых непрочитанных сообщений. Тайная жизнь домашних животных / The Secret Life of Pets (2016) HDTVRip от Kaztorrents | КПК | Line

1017 | 16

452.58 МБ

В этой теме нет новых непрочитанных сообщений. Тайная жизнь домашних животных / The Secret Life of Pets (2016) HDTVRip 720p | Line

8822 | 395

2.73 ГБ

В этой теме нет новых непрочитанных сообщений. Тайная жизнь домашних животных / The Secret Life of Pets (2016) HDTVRip-AVC от ExKinoRay | Line

137 | 5

1.46 ГБ

В этой теме нет новых непрочитанных сообщений. Тайная жизнь домашних животных / The Secret Life of Pets (2016) HDTVRip от MediaClub | | Line

3113 | 141

1.09 ГБ

В этой теме нет новых непрочитанных сообщений. Тайная жизнь домашних животных / The Secret Life of Pets (2016) HDTVRip от GeneralFilm | Line

2398 | 674

744.37 МБ




Вы не можете начинать темы
Вы не можете отвечать на сообщения
Вы не можете редактировать свои сообщения
Вы не можете удалять свои сообщения
Вы не можете добавлять вложения

Перейти:  
Для Мосгорсуда, Роскомнадзора и рекламодателей: mosgorsud-torrent[собачка]yandex.ru
 Вход
ppkBB3cker v.2 © 2008-2014 @ PPK
[ Time : 0.034s | 15 Queries | GZIP : Off ]

cron