img image001 image001 image001 image001 image001 image001 image001 image001 image001 image001 image001 image001 image001 image001 image001

Planets Sun Sun Sun
Статистика раздачи
Автор: PriZraK | Размер: 3.73 ГБ | Добавлен: 19 сен 2016
Раздают: 0    Качают: 0
Скачать торрент
Скачать торрент
Описание торрента

СообщениеДобавлено: 19 сен 2016 


Лотте и тайна лунного камня / Lotte ja kuukivi saladus
Страна: Эстония Латвия
Производство: Eesti Joonisfilm, Rija Films
Год выпуска: 2011
Жанр: мультфильм, семейный, приключения
Продолжительность: 01:12:49
Режиссеры: Хейки Эрниц, Янно Пылдмаа
Авторы сценария: Янно Пылдмаа, Хейки Эрниц, Андрус Кивиряхк
В ролях: Эвелин Панг, Маргус Табор, Майт Мальмстен, Микк Юрьенс, Тони Ойя, Лембит Ульфсак, Тийт Сукк, Мерле Пальмисте
Описание: Как-то раз под покровом ночи в деревню Изобретателей пробрались двое неизвестных, которых интересовал чемодан пса-путешественника Клауса. Собачка Лотте застигла незнакомцев, которые в испуге кинули жёлтый камень, взятый из чемодана Клауса, и убежали. Лотте выясняет, что это не какой-то простой камень, а необыкновенный — с серьёзным механизмом внутри…

Перевод: Профессиональный (полное дублирование)
Субтитры: нет

Качество: HDTV 1080i
Формат: MPEG-TS
Видео кодек: AVC
Аудио кодек: МР2
Видео: 1920x1080 (16:9), 25.000 fps, AVC ~6 323 kbps avg
Аудио №1: 48.0 kHz, МР2, 2/0 (L,R) ch, ~320 kbps | RUS
Аудио №2: 48.0 kHz, МР2, 2/0 (L,R) ch, ~320 kbps | EST
Дата премьеры (мир): 25 августа 2011

Релиз от:
Дополнительная информация: Русский дубляж выполнен эстонской телекомпанией ETV при поддержке Института кино Эстонии
General
Формат : MPEG-TS
Размер файла : 3,73 Гбайт
Продолжительность : 1 ч. 12 м.
Режим общего битрейта : Переменный
Общий поток : 7332 Кбит/сек
Максимальный общий битрейт : 35,5 Мбит/сек
Видео
Идентификатор : 4113 (0x1011)
Идентификатор меню : 1 (0x1)
Формат : AVC
Формат/Информация : Advanced Video Codec
Профиль формата : High@L4
Параметр CABAC формата : Да
Параметр ReFrames формата : 4 кадра
Идентификатор кодека : 27
Продолжительность : 1 ч. 12 м.
Вид битрейта : Переменный
Битрейт : 6323 Кбит/сек
Максимальный битрейт : 40,0 Мбит/сек
Ширина : 1920 пикселей
Высота : 1080 пикселей
Соотношение сторон : 16:9
Частота кадров : 25,000 кадров/сек
Стандарт вещания : Component
Цветовое пространство : YUV
Субдискретизация насыщенности : 4:2:0
Битовая глубина : 8 бит
Тип развёртки : Чересстрочная
Порядок развёртки : Верхнее поле первое
Бит/(Пиксели*Кадры) : 0.122
Размер потока : 3,22 Гбайт (86%)
Цветовой диапазон : Limited
Основные цвета : BT.709
Характеристики трансфера : BT.709
Коэффициенты матрицы : BT.709
Аудио #1
Идентификатор : 4352 (0x1100)
Идентификатор меню : 1 (0x1)
Формат : MPEG Audio
Версия формата : Version 1
Профиль формата : Layer 2
Идентификатор кодека : 4
Продолжительность : 1 ч. 12 м.
Вид битрейта : Постоянный
Битрейт : 320 Кбит/сек
Каналы : 2 канала
Частота : 48,0 КГц
Метод сжатия : С потерями
Размер потока : 167 Мбайт (4%)
Язык : Russian
Аудио #2
Идентификатор : 4353 (0x1101)
Идентификатор меню : 1 (0x1)
Формат : MPEG Audio
Версия формата : Version 1
Профиль формата : Layer 2
Идентификатор кодека : 4
Продолжительность : 1 ч. 12 м.
Вид битрейта : Постоянный
Битрейт : 320 Кбит/сек
Каналы : 2 канала
Частота : 48,0 КГц
Метод сжатия : С потерями
Размер потока : 167 Мбайт (4%)
Язык : Estonian




   Похожие торренты   Торрент   Размер 
В этой теме нет новых непрочитанных сообщений. Провинциальные детективы и тайна Белой дамы / Vаikelinna detektiivid ja valge daami saladus [S01] (2013) DVDRip | L1

7 | 1

3.2 ГБ

В этой теме нет новых непрочитанных сообщений. Тайна астероида (В сердце камня) / Within The Rock (1996) DVDRip от PlanetaUA

1 | 10

623.35 МБ

В этой теме нет новых непрочитанных сообщений. Тайна волшебной Тыквы / Bao hu lu de mi mi (2007) HDTV 1080i

392 | 43

5.17 ГБ

В этой теме нет новых непрочитанных сообщений. Тайна кумира [01-08 из 08] (2015) HDTV 1080i от Files-x

91 | 39

18.46 ГБ

В этой теме нет новых непрочитанных сообщений. Тайна горы мертвецов. Перевал Дятлова [01-02 из 02] (2013) HDTV 1080i

2 | 2

5.1 ГБ

В этой теме нет новых непрочитанных сообщений. Таинственные миры. Иерусалим. Тайна сокровищ / Secret Worlds (2009) HDTV 1080i

0 | 6

2.96 ГБ

В этой теме нет новых непрочитанных сообщений. Колумб: Призрак Таинственного Камня (2011) PC

4 | 6

202.08 МБ




Вы не можете начинать темы
Вы не можете отвечать на сообщения
Вы не можете редактировать свои сообщения
Вы не можете удалять свои сообщения
Вы не можете добавлять вложения

Перейти:  
Для Мосгорсуда, Роскомнадзора и рекламодателей: mosgorsud-torrent[собачка]yandex.ru
 Вход
ppkBB3cker v.2 © 2008-2014 @ PPK
[ Time : 0.022s | 13 Queries | GZIP : Off ]
CGP output time : 0.032s | 5 Queries | GZIP : Off

Торрент трекер RUTOR.IN, Не можете зайти на rutor.org? Какой новый адрес рутор? Какое зеркало рутор? Не работает rutor.org и зеркала? Тогда наш торрент специально для вас. Rutor.in неофициальное зеркало rutor. В случае если у Вас заблокирован rutor или вдруг Вы не можете на него зайти, то Вы без труда сможете скачать бесплатно и без рекламы последние новинки кино, игр, сериалов и прочего у нас, на Rutor.in. Не нужно использовать прокси, чтобы зайти на рутор, достаточно воспользоваться нашим ресурсом. Все новые фильмы, игры, сериалы, книги и музыка за 2013 и 2014 годы через торрент бесплатно. Скачивайте фильмы в хорошем качестве, игры для пк, xbox, playstation без регистрации. У нас вы найдете новые Зарубежные сериалы и Русские сериалы 2013, 2014, 2015 годов. Оставайтесь с нами, качайте любимые фильмы, игры, сериалы, книги и музыку.