img image001 image001 image001 image001 image001 image001 image001 image001 image001 image001 image001 image001 image001 image001 image001

Planets Sun Sun Sun
Статистика раздачи
Автор: PriZraK | Размер: 1.09 ГБ | Добавлен: 19 сен 2016
Раздают: 3113    Качают: 141
Скачать торрент
Скачать торрент
Описание торрента

СообщениеДобавлено: 19 сен 2016 


Информация о фильме
Название: Тайная жизнь домашних животных
Оригинальное название: The Secret Life of Pets
Год выхода: 2016
Жанр: Мультфильм, комедия, семейный
Режиссер: Ярроу Чейни, Крис Рено
В ролях: Луис С.К., Эрик Стоунстрит, Кевин Харт, Дженни Слейт, Элли Кемпер, Альберт Брукс, Лэйк Белл, Дэна Карви, Хэннибал Бёресс, Бобби Мойнахан
О фильме: Что делают домашние животные пока хозяева пропадают на работе? С тоской смотрят в окно? Смиренно дремлют на коврике у двери? Как бы не так. Они ведут свою тайную жизнь. Сюжет повествует о Кэти и её питомце псе Максе, который привык быть единственным любимцем своей хозяйки Кэтти. Живут они душа в душу, как лучшие друзья. Но, в один прекрасный момент идиллия прекращается, ведь в дом приводят нового питомца — Дюка. И Макс начинает недолюбливать соседа, еще бы, ведь Дюк забирает внимание хозяйки на себя, да что он вообще себе позволяет? Макс решает проучить Дюка, и избавится от него, чтобы любовь Кэтти вновь доставалась лишь ему одному, в результате чего оба оказываются далеко от дома и теперь им придется как-то взаимодействовать друг с другом, чтобы вместе найти дорогу домой...

Страна: Япония, США
Студия: Dentsu / Fuji Television Network Inc., Illumination Entertainment, Universal Pictures
Продолжительность: 01:26:25
Перевод: Дублированный| Line
Файл
Кодек: XviD
Качество: HDTVRip
Видео: 1599 Кбит/с, 720x384
Звук:
Аудио: Русский (AC3, 2 ch, 192 Кбит/с) / Дублированный | Line
Семпл
Общее
Полное имя : C:UsersadminDownloadsThe.Secret.Life.of.Pets.2016.XviD.HDTVRip.Dub.Line-MediaClub.avi
Формат : AVI
Формат/Информация : Audio Video Interleave
Размер файла : 1,09 Гбайт
Продолжительность : 1 ч. 26 м.
Общий поток : 1803 Кбит/сек
Название фильма : = MediaClub = rip by Painter
Программа кодирования : VirtualDubMod 1.5.10.3 (build 2550/release)
Библиотека кодирования : VirtualDubMod build 2550/release
Видео
Идентификатор : 0
Формат : MPEG-4 Visual
Профиль формата : Advanced Simple@L5
Параметр BVOP формата : 1
Параметр QPel формата : Нет
Параметр GMC формата : Без точки перехода
Параметр матрицы формата : Выборочная
Идентификатор кодека : XVID
Идентификатор кодека/Подсказка : XviD
Продолжительность : 1 ч. 26 м.
Битрейт : 1599 Кбит/сек
Ширина : 720 пикселей
Высота : 384 пикселя
Соотношение сторон : 1,85:1
Частота кадров : 29,970 кадров/сек
Цветовое пространство : YUV
Субдискретизация насыщенности : 4:2:0
Битовая глубина : 8 бит
Тип развёртки : Прогрессивная
Метод сжатия : С потерями
Бит/(Пиксели*Кадры) : 0.193
Размер потока : 989 Мбайт (89%)
Библиотека кодирования : XviD 73
Аудио
Идентификатор : 1
Формат : AC-3
Формат/Информация : Audio Coding 3
Расширение режима : CM (complete main)
Параметр Endianness формата : Big
Идентификатор кодека : 2000
Продолжительность : 1 ч. 26 м.
Вид битрейта : Постоянный
Битрейт : 192 Кбит/сек
Каналы : 2 канала
Расположение каналов : Front: L R
Частота : 48,0 КГц
Битовая глубина : 16 бит
Метод сжатия : С потерями
Размер потока : 119 Мбайт (11%)
Выравнивание : Разделение по промежуткам
Продолжительность промежутка : 33 мс. (1,00 видеокадр)
Время предзагрузки промежутка : 500 мс.



Релиз от: | Автор рипа:



   Похожие торренты   Торрент   Размер 
В этой теме нет новых непрочитанных сообщений. Тайная жизнь домашних животных / The Secret Life of Pets (2016) HDTVRip-AVC | Line

3537 | 120

1.23 ГБ

В этой теме нет новых непрочитанных сообщений. Тайная жизнь домашних животных / The Secret Life of Pets (2016) HDTVRip | Line

15173 | 472

1.36 ГБ

В этой теме нет новых непрочитанных сообщений. Тайная жизнь домашних животных / The Secret Life of Pets (2016) HDTVRip-AVC от ExKinoRay | Line

137 | 5

1.46 ГБ

В этой теме нет новых непрочитанных сообщений. Тайная жизнь домашних животных / The Secret Life of Pets (2016) HDTVRip-AVC от Vovan366 | Line

8 | 6

744.23 МБ

В этой теме нет новых непрочитанных сообщений. Тайная жизнь домашних животных / The Secret Life of Pets (2016) HDTVRip от Kaztorrents | КПК | Line

1017 | 16

452.58 МБ

В этой теме нет новых непрочитанных сообщений. Тайная жизнь домашних животных / The Secret Life of Pets (2016) HDTVRip от GeneralFilm | Line

2398 | 674

744.37 МБ

В этой теме нет новых непрочитанных сообщений. Тайная жизнь домашних животных / The Secret Life of Pets (2016) HDTVRip 720p | Line

8822 | 395

2.73 ГБ




Вы не можете начинать темы
Вы не можете отвечать на сообщения
Вы не можете редактировать свои сообщения
Вы не можете удалять свои сообщения
Вы не можете добавлять вложения

Перейти:  
Для Мосгорсуда, Роскомнадзора и рекламодателей: mosgorsud-torrent[собачка]yandex.ru
 Вход
ppkBB3cker v.2 © 2008-2014 @ PPK
[ Time : 0.061s | 15 Queries | GZIP : Off ]

cron