img image001 image001 image001 image001 image001 image001 image001 image001 image001 image001 image001 image001 image001 image001 image001

Planets Sun Sun Sun
Статистика раздачи
Автор: PriZraK | Размер: 11.42 ГБ | Добавлен: 19 сен 2016
Раздают: 10    Качают: 1
Скачать торрент
Скачать торрент
Описание торрента

СообщениеДобавлено: 19 сен 2016 


«Что такие сердитые?»
Информация о фильме
Название: Angry Birds в кино
Оригинальное название: Angry Birds
Год выхода: 2016
Жанр: Мультфильм, боевик, комедия, семейный
Режиссер: Клэй Кэйтис, Фергал Рейли
Роли озвучивают: Питер Динклэйдж, Джейсон Судейкис, Кейт МакКиннон, Кигэн-Майкл Ки, Титус Берджесс, Шон Пенн, Билл Хейдер, Майя Рудольф, Айк Баринхолц, Дэнни МакБрайд
О фильме:
Фильм расскажет о том, как началось знаменитое противостояние птичек и свинок, персонажей популярной компьютерной игры, а также раскроет некоторые секреты любимых героев.

Страна: США, Финляндия
Студия: Columbia Pictures, LStar Capital, Rovio Entertainment
Продолжительность: 01:37:14
Перевод: Профессиональный (полное дублирование)[Лицензия]
Файл
Качество: BDRip 1080p
Кодек: x264
Видео: AVC / 1920x1080p / 16:9 / 23,976 fps / 13,7 Мbps / 0.275 bit/pix
Аудио #1: Русский / AC3 / 48 KHz / 5.1 ch / 640 Kbps
Аудио 2: Украинский /AC3 / 48 KHz / 5.1 ch / 640 Kbps
Аудио 3: Английский / DTS / 48 KHz / 5.1 ch / 1509 Kbps
Субтитры :
Вшитые (softsub):
#1 - Русские Forced, iTunes (включены по умолчанию)
#2 - Русские iTunes
#3 - Украинские iTunes
#4 - Английские iTunes
#5 - Английские
#6 - Английские SDH
Формат 3D: Half SideBySide / Горизонтальная анаморфная стереопара
Порядок ракурсов: левый ракурс первый
Семпл
Общее
Уникальный идентификатор : 233104715585756943242841418489192347097 (0xAF5E55CF2C19B9C4A5209B2A13A975D9)
Полное имя : D:TorrentsЗавершенныеAngry.Birds.2016.1080p.3D.BluRay.Half-SBS.Rus.Ukr.Eng.HDCLUB.mkv
Формат : Matroska
Версия формата : Version 2
Размер файла : 11,4 Гбайт
Продолжительность : 1 ч. 37 м.
Общий поток : 16,8 Мбит/сек
Название фильма : Angry Birds (2016) [3D] - Release for HDCLUB
Дата кодирования : UTC 2016-09-06 10:50:35
Программа кодирования : mkvmerge v3.4.0 ('Rapunzel') built on May 15 2010 09:38:20
Библиотека кодирования : libebml v0.8.0 + libmatroska v0.9.0
Обложка : Yes
Attachments : cover.jpg / cover_land.jpg / small_cover.jpg / small_cover_land.jpg
Видео
Идентификатор : 1
Формат : AVC
Формат/Информация : Advanced Video Codec
Профиль формата : High@L4.1
Параметр CABAC формата : Да
Параметр ReFrames формата : 4 кадра
Идентификатор кодека : V_MPEG4/ISO/AVC
Продолжительность : 1 ч. 37 м.
Битрейт : 13,7 Мбит/сек
Ширина : 1920 пикселей
Высота : 1080 пикселей
Соотношение сторон : 16:9
Режим частоты кадров : Постоянный
Частота кадров : 23,976 (24000/1001) кадра/сек
Цветовое пространство : YUV
Субдискретизация насыщенности : 4:2:0
Битовая глубина : 8 бит
Тип развёртки : Прогрессивная
Бит/(Пиксели*Кадры) : 0.275
Размер потока : 9,30 Гбайт (81%)
Заголовок : Angry Birds (2016) [3D] - Release for HDCLUB
Библиотека кодирования : x264 core 148 r2705 3f5ed56
Настройки программы : cabac=1 / ref=4 / deblock=1:-3:-3 / analyse=0x3:0x133 / me=umh / subme=11 / psy=1 / psy_rd=1.05:0.00 / mixed_ref=1 / me_range=32 / chroma_me=1 / trellis=2 / 8x8dct=1 / cqm=0 / deadzone=21,11 / fast_pskip=0 / chroma_qp_offset=-2 / threads=12 / lookahead_threads=3 / sliced_threads=0 / slices=4 / nr=0 / decimate=0 / interlaced=0 / bluray_compat=0 / constrained_intra=0 / bframes=16 / b_pyramid=2 / b_adapt=2 / b_bias=0 / direct=3 / weightb=1 / open_gop=0 / weightp=2 / keyint=250 / keyint_min=23 / scenecut=40 / intra_refresh=0 / rc_lookahead=60 / rc=crf / mbtree=0 / crf=15.5 / qcomp=0.65 / qpmin=0 / qpmax=69 / qpstep=4 / vbv_maxrate=62500 / vbv_bufsize=78125 / crf_max=0.0 / nal_hrd=none / filler=0 / ip_ratio=1.40 / pb_ratio=1.30 / aq=3:0.85
Язык : English
Default : Да
Forced : Нет
Аудио #1
Идентификатор : 2
Формат : AC-3
Формат/Информация : Audio Coding 3
Расширение режима : CM (complete main)
Параметр Endianness формата : Big
Идентификатор кодека : A_AC3
Продолжительность : 1 ч. 37 м.
Вид битрейта : Постоянный
Битрейт : 640 Кбит/сек
Каналы : 6 каналов
Расположение каналов : Front: L C R, Side: L R, LFE
Частота : 48,0 КГц
Частота кадров : 31,250 кадров/сек (1536 spf)
Метод сжатия : С потерями
Размер потока : 445 Мбайт (4%)
Заголовок : AC3 5.1 @ 640 kbps - DUB, Blu-ray NORDiC
Язык : Russian
Default : Да
Forced : Нет
Аудио #2
Идентификатор : 3
Формат : AC-3
Формат/Информация : Audio Coding 3
Расширение режима : CM (complete main)
Параметр Endianness формата : Big
Идентификатор кодека : A_AC3
Продолжительность : 1 ч. 37 м.
Вид битрейта : Постоянный
Битрейт : 640 Кбит/сек
Каналы : 6 каналов
Расположение каналов : Front: L C R, Side: L R, LFE
Частота : 48,0 КГц
Частота кадров : 31,250 кадров/сек (1536 spf)
Метод сжатия : С потерями
Размер потока : 445 Мбайт (4%)
Заголовок : AC3 5.1 @ 640 kbps - DUB, Blu-ray NORDiC
Язык : Ukrainian
Default : Нет
Forced : Нет
Аудио #3
Идентификатор : 4
Формат : DTS
Формат/Информация : Digital Theater Systems
Режим : 16
Параметр Endianness формата : Big
Идентификатор кодека : A_DTS
Продолжительность : 1 ч. 37 м.
Вид битрейта : Постоянный
Битрейт : 1509 Кбит/сек
Каналы : 6 каналов
Расположение каналов : Front: L C R, Side: L R, LFE
Частота : 48,0 КГц
Частота кадров : 93,750 кадра/сек (512 spf)
Битовая глубина : 16 бит
Метод сжатия : С потерями
Размер потока : 1,02 Гбайт (9%)
Заголовок : DTS 5.1 @ 1536 kbps
Язык : English
Default : Нет
Forced : Нет
Текст #1
Идентификатор : 5
Формат : UTF-8
Идентификатор кодека : S_TEXT/UTF8
Идентификатор кодека/Информация : UTF-8 Plain Text
Заголовок : Forced, iTunes
Язык : Russian
Default : Да
Forced : Нет
Текст #2
Идентификатор : 6
Формат : UTF-8
Идентификатор кодека : S_TEXT/UTF8
Идентификатор кодека/Информация : UTF-8 Plain Text
Заголовок : iTunes
Язык : Russian
Default : Нет
Forced : Нет
Текст #3
Идентификатор : 7
Формат : UTF-8
Идентификатор кодека : S_TEXT/UTF8
Идентификатор кодека/Информация : UTF-8 Plain Text
Заголовок : iTunes
Язык : Ukrainian
Default : Нет
Forced : Нет
Текст #4
Идентификатор : 8
Формат : UTF-8
Идентификатор кодека : S_TEXT/UTF8
Идентификатор кодека/Информация : UTF-8 Plain Text
Заголовок : iTunes
Язык : English
Default : Нет
Forced : Нет
Текст #5
Идентификатор : 9
Формат : UTF-8
Идентификатор кодека : S_TEXT/UTF8
Идентификатор кодека/Информация : UTF-8 Plain Text
Язык : English
Default : Нет
Forced : Нет
Текст #6
Идентификатор : 10
Формат : UTF-8
Идентификатор кодека : S_TEXT/UTF8
Идентификатор кодека/Информация : UTF-8 Plain Text
Заголовок : SDH
Язык : English
Default : Нет
Forced : Нет
Меню
00:00:00.000 : en:Chapter 1
00:07:05.091 : en:Chapter 2
00:13:38.109 : en:Chapter 3
00:20:22.638 : en:Chapter 4
00:25:38.620 : en:Chapter 5
00:32:57.392 : en:Chapter 6
00:38:34.812 : en:Chapter 7
00:41:36.327 : en:Chapter 8
00:47:12.955 : en:Chapter 9
00:52:04.288 : en:Chapter 10
00:56:07.698 : en:Chapter 11
00:59:08.712 : en:Chapter 12
01:03:43.319 : en:Chapter 13
01:11:45.801 : en:Chapter 14
01:18:55.522 : en:Chapter 15
01:23:54.821 : en:Chapter 16

Релиз от:



   Похожие торренты   Торрент   Размер 
В этой теме нет новых непрочитанных сообщений. Angry Birds в кино / Angry Birds (2016) BDRip 1080p | 3D-Video | hSBS | iTunes

270 | 53

11.62 ГБ

В этой теме нет новых непрочитанных сообщений. Angry Birds в кино / The Angry Birds Movie (2016) BDRip 1080p от Ash61 | 3D-Video | halfOU | iTunes

0 | 0

11.64 ГБ

В этой теме нет новых непрочитанных сообщений. Angry Birds в кино / The Angry Birds Movie (2016) BDRip 1080p от Ash61 | 3D-Video | halfOU | iTunes

107 | 47

11.17 ГБ

В этой теме нет новых непрочитанных сообщений. Angry Birds в кино / Angry Birds (2016) Blu-Ray 1080p | 3D-Video | Лицензия

3 | 0

38.38 ГБ

В этой теме нет новых непрочитанных сообщений. Angry Birds в кино / The Angry Birds Movie (2016) BDRip 1080p от NNNB | Лицензия

0 | 0

5.75 ГБ

В этой теме нет новых непрочитанных сообщений. Angry Birds в кино / The Angry Birds Movie (2016) BDRip 720p от NNNB | 60 fps | Лицензия

0 | 0

4.77 ГБ

В этой теме нет новых непрочитанных сообщений. Angry Birds в кино / The Angry Birds Movie (2016) BDRip 1080p от ExKinoRay | iTunes

993 | 70

8.41 ГБ




Вы не можете начинать темы
Вы не можете отвечать на сообщения
Вы не можете редактировать свои сообщения
Вы не можете удалять свои сообщения
Вы не можете добавлять вложения

Перейти:  
Для Мосгорсуда, Роскомнадзора и рекламодателей: mosgorsud-torrent[собачка]yandex.ru
 Вход
ppkBB3cker v.2 © 2008-2014 @ PPK
[ Time : 0.049s | 15 Queries | GZIP : Off ]

Торрент трекер RUTOR.IN, Не можете зайти на rutor.org? Какой новый адрес рутор? Какое зеркало рутор? Не работает rutor.org и зеркала? Тогда наш торрент специально для вас. Rutor.in неофициальное зеркало rutor. В случае если у Вас заблокирован rutor или вдруг Вы не можете на него зайти, то Вы без труда сможете скачать бесплатно и без рекламы последние новинки кино, игр, сериалов и прочего у нас, на Rutor.in. Не нужно использовать прокси, чтобы зайти на рутор, достаточно воспользоваться нашим ресурсом. Все новые фильмы, игры, сериалы, книги и музыка за 2013 и 2014 годы через торрент бесплатно. Скачивайте фильмы в хорошем качестве, игры для пк, xbox, playstation без регистрации. У нас вы найдете новые Зарубежные сериалы и Русские сериалы 2013, 2014, 2015 годов. Оставайтесь с нами, качайте любимые фильмы, игры, сериалы, книги и музыку.