img image001 image001 image001 image001 image001 image001 image001 image001 image001 image001 image001 image001 image001 image001 image001

Planets Sun Sun Sun
Статистика раздачи
Автор: PriZraK | Размер: 1.88 ГБ | Добавлен: 19 сен 2016
Раздают: 0    Качают: 0
Скачать торрент
Скачать торрент
Описание торрента

СообщениеДобавлено: 19 сен 2016 

Информация о фильме
Название: Ангел Бэби (Angel Baby)
Год выхода: 2015-2016
Страна: Россия, РИА "Панда"
Жанр: Мультсериал, рисованный, детский, обучающий
Продолжительность: 23 ~ 00:06:30
Язык: русский
Режиссер: Ринат Газизов
В ролях: Валерий Соловьёв, Ксения Бржезовская, Владимир Постников, Елизавета Бирюкова, Григорий Илларионов
О фильме:
Как известно, ангелы прилетают и исчезают внезапно. Прилетают для того, чтобы помочь своим друзьям, исполнить их мечты и желания. Часто ангелам приходится переносить ребят во времени или в пространстве. С ангелами всё возможно! Но любое путешествие — это не просто приключение, но и открытие. А еще — полезный и мудрый урок.
s1e01. Светлая мысль
s1e02. Рыцарский поступок
s1e03. Абы кабы
s1e04. Торто Робот
s1e05. Чудеса в рюкзаке
s1e06. Опасное плавание
s1e07. Ночная сказка
s1e08. Каменный век
s1e09. Парк аттракционов
s1e10. Сэр Великан
s1e11. Зеркало жизни
s1e12. Алле-ап
s1e13. Настоящая победа
s1e14. Просыпайтесь, малыши
s1e15. Дружная команда
s1e16. Важная профессия
s2e17. Тарзанка
s2e18. След в истории
s2e19. Не цари в природе
s2e20. Лайки
s2e21. Золотая рыбка, не простая
s2e22. Сладкая история
s2e23. Эврика!



Доп. информация:
Официальный сайт / Семпл


Файл
Формат: AVI
Качество: WEB-DLRip
Видео: 720x400 (1.80:1), 25 fps, XviD build 65 ~1600 kbps avg, 0.22 bit/pixel
Аудио: 48 kHz, AC3 Dolby Digital, 2/0 (L,R) ch, ~192.00 kbps avg
Субтитры: нет
s2e23. Эврика! XviD-merci-.avi
Формат : AVI
Формат/Информация : Audio Video Interleave
Размер файла : 86,2 Мбайт
Продолжительность : 6 м. 41 с.
Общий поток : 1803 Кбит/сек
Программа кодирования : VirtualDubMod 1.5.10.3 | www.virtualdub-fr.org || (build 2550/release)
Библиотека кодирования : VirtualDubMod build 2550/release
Видео
Идентификатор : 0
Формат : MPEG-4 Visual
Профиль формата : Advanced Simple@L5
Параметр BVOP формата : 1
Параметр QPel формата : Нет
Параметр GMC формата : Без точки перехода
Параметр матрицы формата : Default (MPEG)
Идентификатор кодека : XVID
Идентификатор кодека/Подсказка : XviD
Продолжительность : 6 м. 41 с.
Битрейт : 1601 Кбит/сек
Ширина : 720 пикселей
Высота : 400 пикселей
Соотношение сторон : 16:9
Частота кадров : 25,000 кадров/сек
Цветовое пространство : YUV
Субдискретизация насыщенности : 4:2:0
Битовая глубина : 8 бит
Тип развёртки : Прогрессивная
Метод сжатия : С потерями
Бит/(Пиксели*Кадры) : 0.222
Размер потока : 76,5 Мбайт (89%)
Библиотека кодирования : XviD 65
Аудио
Идентификатор : 1
Формат : AC-3
Формат/Информация : Audio Coding 3
Расширение режима : CM (complete main)
Параметр Endianness формата : Big
Идентификатор кодека : 2000
Продолжительность : 6 м. 41 с.
Вид битрейта : Постоянный
Битрейт : 192 Кбит/сек
Каналы : 2 канала
Расположение каналов : Front: L R
Частота : 48,0 КГц
Частота кадров : 31,250 кадров/сек (1536 spf)
Метод сжатия : С потерями
Размер потока : 9,18 Мбайт (11%)
Выравнивание : Разделение по промежуткам
Продолжительность промежутка : 40 мс. (1,00 видеокадр)
Время предзагрузки промежутка : 500 мс.


Релиз от:
Автор релиза: /



   Похожие торренты   Торрент   Размер 
В этой теме нет новых непрочитанных сообщений. Ангел Бэби [01x01-16,02x17-23 из ?] (2015-2016) WEB-DLRip от ExKinoRay

19 | 0

1.96 ГБ

В этой теме нет новых непрочитанных сообщений. Ангел Бэби [01x01-16,02x17-19] (2015-2016) WEB-DL 1080p от -merci-

41 | 6

4.49 ГБ

В этой теме нет новых непрочитанных сообщений. Ангел Бэби [01x01-16,02x17-19] (2015-2016) WEB-DL 720p от -merci-

208 | 21

3.63 ГБ

В этой теме нет новых непрочитанных сообщений. Ангел Бэби [01x01-16 из ? + Бонусы] (2015) WEB-DLRip от New-Team | D

556 | 41

1.46 ГБ

В этой теме нет новых непрочитанных сообщений. Ангел Бэби [01x01-16 из ? + Бонусы] (2015) WEB-DLRip от New-Team | D

258 | 60

1.68 ГБ

В этой теме нет новых непрочитанных сообщений. Вайнона Эрп / Wynonna Earp [01x01 из 10] (2016) WEB-DLRip от ExKinoRay | BaibaKo

1 | 0

672.53 МБ

В этой теме нет новых непрочитанных сообщений. Жила-была царевна [01x01-06 + 10 бонусов] (2013-2016) WEB-DLRip от ExKinoRay

70 | 11

631.2 МБ




Вы не можете начинать темы
Вы не можете отвечать на сообщения
Вы не можете редактировать свои сообщения
Вы не можете удалять свои сообщения
Вы не можете добавлять вложения

Перейти:  
Для Мосгорсуда, Роскомнадзора и рекламодателей: mosgorsud-torrent[собачка]yandex.ru
 Вход
ppkBB3cker v.2 © 2008-2014 @ PPK
[ Time : 0.031s | 17 Queries | GZIP : Off ]

Торрент трекер RUTOR.IN, Не можете зайти на rutor.org? Какой новый адрес рутор? Какое зеркало рутор? Не работает rutor.org и зеркала? Тогда наш торрент специально для вас. Rutor.in неофициальное зеркало rutor. В случае если у Вас заблокирован rutor или вдруг Вы не можете на него зайти, то Вы без труда сможете скачать бесплатно и без рекламы последние новинки кино, игр, сериалов и прочего у нас, на Rutor.in. Не нужно использовать прокси, чтобы зайти на рутор, достаточно воспользоваться нашим ресурсом. Все новые фильмы, игры, сериалы, книги и музыка за 2013 и 2014 годы через торрент бесплатно. Скачивайте фильмы в хорошем качестве, игры для пк, xbox, playstation без регистрации. У нас вы найдете новые Зарубежные сериалы и Русские сериалы 2013, 2014, 2015 годов. Оставайтесь с нами, качайте любимые фильмы, игры, сериалы, книги и музыку.