img image001 image001 image001 image001 image001 image001 image001 image001 image001 image001 image001 image001 image001 image001 image001

Planets Sun Sun Sun
Статистика раздачи
Автор: PriZraK | Размер: 4.71 ГБ | Добавлен: 19 сен 2016
Раздают: 0    Качают: 0
Скачать торрент
Скачать торрент
Описание торрента

СообщениеДобавлено: 19 сен 2016 


Информация о фильме
Название: Синдбад: Легенда семи морей
Оригинальное название: Sinbad: Legend of the Seven Seas
Год выхода: 2003
Жанр: мультфильм, фэнтези, драма, мелодрама, комедия, приключения, семейный
Режиссер: Патрик Гилмор, Тим Джонсон
В ролях: Брэд Питт, Кэтрин Зета-Джонс, Мишель Пфайффер, Джозеф Файнс, Деннис Хейсбёрт, Тимоти Уэст, Адриано Джаннини, Раман Хюи, Чунг Чан, Джим Каммингс
О фильме: Мультфильм рассказывает об одном из многочисленных приключений известного аравийского моряка Синдбада. Приключение начинается тогда, когда Эрис, богиня Хаоса, крадет Книгу Мира, подставив тем самым Синдбада и сделав из него преступника.
Намеревающийся доказать свою невиновность, а также спасти жизнь своего лучшего друга Протеуса Шейпершифера, моряк отправляется в царство Эрис, кишащее ужасными монстрами, такими как гигантские скорпионы, змеи и 40-футовые птицы, сделанные из льда и снега.
Даже если Синдбад сможет обезвредить всех этих чудовищ, ему также придется иметь дело с магией Эрис, обладающей эффектом Яблока Раздора, которое имеет способность превратить друзей во врагов, когда оно брошено посреди них. Синдбаду помогает во всем Марина, подруга Протеуса.
Страна: США
Продолжительность: 01:25:18
Перевод:
Професиональный (полное дублирование)
Профессиональный (Многоголосый закадровый)
Авторский (Одноголосый закадровый) В. Королев

Файл
Кодек: MPEG-4 AVC
Качество: WEBRip 1080p
Видео: 5825 Кбит/с, 1920x1080
Звук:
Русский (AC3, 6 ch, 384 Кбит/с)
Русский (AC3, 6 ch, 448 Кбит/с)
Русский (AC3, 6 ch, 448 Кбит/с)
Английский (AC3, 6 ch, 640 Кбит/с)
Субтитры: Русские, английские
Семпл


Общее
Уникальный идентификатор : 203463419144822903121058814960061974904 (0x9911A110185C06F99DC598359C9D0978)
Полное имя : D:Синдбад.Легенда.семи.морей.WEBRip.1080p.Rus.Eng.mkv
Формат : Matroska
Версия формата : Version 4 / Version 2
Размер файла : 4,71 Гбайт
Продолжительность : 1 ч. 25 м.
Режим общего битрейта : Переменный
Общий поток : 7897 Кбит/сек
Дата кодирования : UTC 2016-09-09 16:07:50
Программа кодирования : mkvmerge v8.2.0 ('World of Adventure') 64bit
Библиотека кодирования : libebml v1.3.1 + libmatroska v1.4.2
DURATION : 01:17:05.636000000
NUMBER_OF_FRAMES : 1134
NUMBER_OF_BYTES : 27626
_STATISTICS_WRITING_APP : mkvmerge v8.2.0 ('World of Adventure') 64bit
_STATISTICS_WRITING_DATE_UTC : 2016-09-09 16:07:50
_STATISTICS_TAGS : BPS DURATION NUMBER_OF_FRAMES NUMBER_OF_BYTES
Видео
Идентификатор : 1
Формат : AVC
Формат/Информация : Advanced Video Codec
Профиль формата : High@L4.0
Параметр CABAC формата : Да
Параметр ReFrames формата : 4 кадра
Идентификатор кодека : V_MPEG4/ISO/AVC
Продолжительность : 1 ч. 25 м.
Вид битрейта : Переменный
Битрейт : 5820 Кбит/сек
Максимальный битрейт : 15,0 Мбит/сек
Ширина : 1920 пикселей
Высота : 1080 пикселей
Соотношение сторон : 16:9
Режим частоты кадров : Постоянный
Частота кадров : 23,976 кадра/сек
Цветовое пространство : YUV
Субдискретизация насыщенности : 4:2:0
Битовая глубина : 8 бит
Тип развёртки : Прогрессивная
Бит/(Пиксели*Кадры) : 0.117
Размер потока : 3,47 Гбайт (74%)
Библиотека кодирования : x264 core 148 r2623 d5b2374
Настройки программы : cabac=1 / ref=4 / deblock=1:-1:-1 / analyse=0x3:0x133 / me=umh / subme=9 / psy=1 / psy_rd=1.00:0.15 / mixed_ref=1 / me_range=24 / chroma_me=1 / trellis=2 / 8x8dct=1 / cqm=0 / deadzone=21,11 / fast_pskip=1 / chroma_qp_offset=-3 / threads=34 / lookahead_threads=5 / sliced_threads=0 / nr=150 / decimate=1 / interlaced=0 / bluray_compat=0 / constrained_intra=0 / bframes=8 / b_pyramid=2 / b_adapt=2 / b_bias=0 / direct=3 / weightb=1 / open_gop=0 / weightp=2 / keyint=120 / keyint_min=61 / scenecut=0 / intra_refresh=0 / rc_lookahead=120 / rc=crf / mbtree=1 / crf=18.0 / qcomp=0.60 / qpmin=0 / qpmax=69 / qpstep=4 / vbv_maxrate=15000 / vbv_bufsize=31250 / crf_max=0.0 / nal_hrd=vbr / filler=0 / ip_ratio=1.40 / aq=3:1.00
Язык : English
Default : Да
Forced : Нет
Основные цвета : BT.709
Характеристики трансфера : BT.709
Коэффициенты матрицы : BT.709
Аудио #1
Идентификатор : 2
Формат : AC-3
Формат/Информация : Audio Coding 3
Расширение режима : CM (complete main)
Параметр Endianness формата : Big
Идентификатор кодека : A_AC3
Продолжительность : 1 ч. 25 м.
Вид битрейта : Постоянный
Битрейт : 384 Кбит/сек
Каналы : 6 каналов
Расположение каналов : Front: L C R, Side: L R, LFE
Частота : 48,0 КГц
Битовая глубина : 16 бит
Метод сжатия : С потерями
Размер потока : 234 Мбайт (5%)
Заголовок : Профессиональный (Дублированный)
Язык : Russian
Default : Да
Forced : Нет
Аудио #2
Идентификатор : 3
Формат : AC-3
Формат/Информация : Audio Coding 3
Расширение режима : CM (complete main)
Параметр Endianness формата : Big
Идентификатор кодека : A_AC3
Продолжительность : 1 ч. 25 м.
Вид битрейта : Постоянный
Битрейт : 448 Кбит/сек
Каналы : 6 каналов
Расположение каналов : Front: L C R, Side: L R, LFE
Частота : 48,0 КГц
Битовая глубина : 16 бит
Метод сжатия : С потерями
Размер потока : 273 Мбайт (6%)
Заголовок : Профессиональный (Многоголосый, Закадровый)
Язык : Russian
Default : Нет
Forced : Нет
Аудио #3
Идентификатор : 4
Формат : AC-3
Формат/Информация : Audio Coding 3
Расширение режима : CM (complete main)
Параметр Endianness формата : Big
Идентификатор кодека : A_AC3
Продолжительность : 1 ч. 25 м.
Вид битрейта : Постоянный
Битрейт : 448 Кбит/сек
Каналы : 6 каналов
Расположение каналов : Front: L C R, Side: L R, LFE
Частота : 48,0 КГц
Битовая глубина : 16 бит
Метод сжатия : С потерями
Размер потока : 273 Мбайт (6%)
Заголовок : Авторский (Одноголосый закадровый) В. Королев
Язык : Russian
Default : Нет
Forced : Нет
Аудио #4
Идентификатор : 5
Формат : E-AC-3
Формат/Информация : Audio Coding 3
Параметр Endianness формата : Big
Идентификатор кодека : A_EAC3
Продолжительность : 1 ч. 25 м.
Вид битрейта : Постоянный
Битрейт : 640 Кбит/сек
Каналы : 6 каналов
Расположение каналов : Front: L C R, Side: L R, LFE
Частота : 48,0 КГц
Метод сжатия : С потерями
Размер потока : 390 Мбайт (8%)
Заголовок : Английский (Оригинал)
Язык : English
Default : Нет
Forced : Нет
Текст #1
Идентификатор : 6
Формат : UTF-8
Идентификатор кодека : S_TEXT/UTF8
Идентификатор кодека/Информация : UTF-8 Plain Text
Язык : Russian
Default : Нет
Forced : Нет
Текст #2
Идентификатор : 7
Формат : UTF-8
Идентификатор кодека : S_TEXT/UTF8
Идентификатор кодека/Информация : UTF-8 Plain Text
Язык : English
Default : Нет
Forced : Нет
Меню
00:00:00.000 : en:Chapter 1
00:03:22.000 : en:Chapter 2
00:05:35.000 : en:Chapter 3
00:09:07.000 : en:Chapter 4
00:13:45.000 : en:Chapter 5
00:16:14.000 : en:Chapter 6
00:19:53.000 : en:Chapter 7
00:23:13.000 : en:Chapter 8
00:27:25.000 : en:Chapter 9
00:30:12.000 : en:Chapter 10
00:34:08.000 : en:Chapter 11
00:38:00.000 : en:Chapter 12
00:42:55.000 : en:Chapter 13
00:45:29.000 : en:Chapter 14
00:47:01.000 : en:Chapter 15
00:49:55.000 : en:Chapter 16
00:52:42.000 : en:Chapter 17
00:55:56.000 : en:Chapter 18
01:00:33.000 : en:Chapter 19
01:06:04.000 : en:Chapter 20
01:07:50.000 : en:Chapter 21
01:10:17.000 : en:Chapter 22
01:14:46.000 : en:Chapter 23
01:17:54.000 : en:Chapter 24



   Похожие торренты   Торрент   Размер 
В этой теме нет новых непрочитанных сообщений. Синдбад: Легенда Семи Морей / Sinbad: Legend of the Seven Seas (2003) PC

55 | 3

374.07 МБ

В этой теме нет новых непрочитанных сообщений. Синдбад: Легенда семи морей / Sinbad: Legend of the Seven Seas (2003) HDTVRip

428 | 11

747.04 МБ

В этой теме нет новых непрочитанных сообщений. Синдбад: Легенда семи морей / Sinbad: Legend of the Seven Seas (2003) WEB-DL 720p | D, P

279 | 31

3.71 ГБ

В этой теме нет новых непрочитанных сообщений. Синдбад: Легенда семи морей / Sinbad: Legend Of Seven Seas (2003) HDTV

59 | 11

5.51 ГБ

В этой теме нет новых непрочитанных сообщений. Синдбад: Легенда семи морей / Sinbad: Legend of the Seven Seas (2003) DVD9

14 | 4

7.64 ГБ

В этой теме нет новых непрочитанных сообщений. Синдбад: Легенда семи морей / Sinbad: Legend of the Seven Seas (2003) DVDRip-AVC

209 | 21

1.46 ГБ

В этой теме нет новых непрочитанных сообщений. Синдбад: Легенда семи морей / Sinbad of the Seven Seas (1989) BDRip-AVC

27 | 16

2.8 ГБ




Вы не можете начинать темы
Вы не можете отвечать на сообщения
Вы не можете редактировать свои сообщения
Вы не можете удалять свои сообщения
Вы не можете добавлять вложения

Перейти:  
Для Мосгорсуда, Роскомнадзора и рекламодателей: mosgorsud-torrent[собачка]yandex.ru
 Вход
ppkBB3cker v.2 © 2008-2014 @ PPK
[ Time : 0.044s | 15 Queries | GZIP : Off ]

Торрент трекер RUTOR.IN, Не можете зайти на rutor.org? Какой новый адрес рутор? Какое зеркало рутор? Не работает rutor.org и зеркала? Тогда наш торрент специально для вас. Rutor.in неофициальное зеркало rutor. В случае если у Вас заблокирован rutor или вдруг Вы не можете на него зайти, то Вы без труда сможете скачать бесплатно и без рекламы последние новинки кино, игр, сериалов и прочего у нас, на Rutor.in. Не нужно использовать прокси, чтобы зайти на рутор, достаточно воспользоваться нашим ресурсом. Все новые фильмы, игры, сериалы, книги и музыка за 2013 и 2014 годы через торрент бесплатно. Скачивайте фильмы в хорошем качестве, игры для пк, xbox, playstation без регистрации. У нас вы найдете новые Зарубежные сериалы и Русские сериалы 2013, 2014, 2015 годов. Оставайтесь с нами, качайте любимые фильмы, игры, сериалы, книги и музыку.
cron