img image001 image001 image001 image001 image001 image001 image001 image001 image001 image001 image001 image001 image001 image001 image001

Planets Sun Sun Sun
Статистика раздачи
Автор: PriZraK | Размер: 745.12 МБ | Добавлен: 19 сен 2016
Раздают: 39    Качают: 2
Скачать торрент
Скачать торрент
Описание торрента

СообщениеДобавлено: 19 сен 2016 

Страна: СССР
Производство: Союзмультфильм
Жанр: мультфильм, фэнтези, семейный
Год выпуска: 1956
Продолжительность: 00:52:43
Перевод: Не требуется
Cубтитры: нет
Оригинальная аудиодорожка: русский
Режиссер: Иван Иванов-Вано, Михаил Ботов
Роли озвучивали:
еннадий Малышев, Ольга Геммерлинг, Анатолий Сазонов, Эраст Гарин, Григорий Шпигель...
Полный список актёров
Описание:
По одноименной сказке С.Маршака.
Глупая и капризная королева приказала принести ей под Новый год корзину подснежников. Злые мать и дочь послали трудолюбивую падчерицу в лес. Она набрела на поляну, где вокруг костра сидели двенадцать месяцев. Они помогли девочке. Апрель, встав на место Января, превратил зимнюю поляну в весенний луг. Девочка принесла цветы, а мать и дочь получили за это корзину золота. Королева потребовала повести ее в лес. Братья-месяцы решили наказать злых и жадных женщин - мать и дочь они превратили в собак.





Источник: BDRemux 1080p
Качество видео: BDRip
Формат видео: AVI
Видео: 720x544 (4:3), 25 fps, XviD ~ 1579 kbps avg, 0.161 bit/pixel
Аудио: 48 kHz, Dolby Digital AC3 5.1, 384 kbps
Раздача от:
Общее
Полное имя : Dvenadcat.mesyacev.1956.BDRip_[New-team]_by_AVP_Studio.avi
Формат : AVI
Формат/Информация : Audio Video Interleave
Размер файла : 744 Мбайт
Продолжительность : 52 м.
Общий поток : 1973 Кбит/сек
Программа кодирования : VirtualDubMod 1.5.10.3 | www.virtualdub-fr.org || (build 2550/release)
Библиотека кодирования : VirtualDubMod build 2550/release
Видео
Идентификатор : 0
Формат : MPEG-4 Visual
Профиль формата : Advanced Simple@L5
Параметр BVOP формата : 1
Параметр QPel формата : Нет
Параметр GMC формата : Без точки перехода
Параметр матрицы формата : Выборочная
Идентификатор кодека : XVID
Идентификатор кодека/Подсказка : XviD
Продолжительность : 52 м.
Битрейт : 1579 Кбит/сек
Ширина : 720 пикселей
Высота : 544 пикселя
Соотношение сторон : 4:3
Частота кадров : 25,000 кадров/сек
Цветовое пространство : YUV
Субдискретизация насыщенности : 4:2:0
Битовая глубина : 8 бит
Тип развёртки : Прогрессивная
Метод сжатия : С потерями
Бит/(Пиксели*Кадры) : 0.161
Размер потока : 596 Мбайт (80%)
Библиотека кодирования : XviD 1.2.1 (UTC 2008-12-04)
Аудио
Идентификатор : 1
Формат : AC-3
Формат/Информация : Audio Coding 3
Расширение режима : CM (complete main)
Параметр Endianness формата : Big
Идентификатор кодека : 2000
Продолжительность : 52 м.
Вид битрейта : Постоянный
Битрейт : 384 Кбит/сек
Каналы : 6 каналов
Расположение каналов : Front: L C R, Side: L R, LFE
Частота : 48,0 КГц
Частота кадров : 31,250 кадров/сек (1536 spf)
Метод сжатия : С потерями
Размер потока : 145 Мбайт (19%)
Выравнивание : Разделение по промежуткам
Продолжительность промежутка : 40 мс. (1,00 видеокадр)
Время предзагрузки промежутка : 500 мс





   Похожие торренты   Торрент   Размер 
В этой теме нет новых непрочитанных сообщений. Двенадцать месяцев (1956) BDRip-AVC от New-Team

35 | 3

744.47 МБ

В этой теме нет новых непрочитанных сообщений. Двенадцать месяцев (1956) BDRip 720p от New-Team

34 | 1

1.46 ГБ

В этой теме нет новых непрочитанных сообщений. Двенадцать месяцев (1956) DVDRip

564 | 21

632.93 МБ

В этой теме нет новых непрочитанных сообщений. Двенадцать месяцев (1956) DVDRip от MediaClub | КПК

694 | 23

237.39 МБ

В этой теме нет новых непрочитанных сообщений. Двенадцать месяцев (1972) DVD5

260 | 7

4.37 ГБ

В этой теме нет новых непрочитанных сообщений. Двенадцать месяцев (1972) DVDRip

399 | 26

2.19 ГБ

В этой теме нет новых непрочитанных сообщений. Мелодия - Самуил Маршак - Двенадцать месяцев (1973) MP3

328 | 8

208.81 МБ




Вы не можете начинать темы
Вы не можете отвечать на сообщения
Вы не можете редактировать свои сообщения
Вы не можете удалять свои сообщения
Вы не можете добавлять вложения

Перейти:  
Для Мосгорсуда, Роскомнадзора и рекламодателей: mosgorsud-torrent[собачка]yandex.ru
 Вход
ppkBB3cker v.2 © 2008-2014 @ PPK
[ Time : 0.047s | 15 Queries | GZIP : Off ]

Торрент трекер RUTOR.IN, Не можете зайти на rutor.org? Какой новый адрес рутор? Какое зеркало рутор? Не работает rutor.org и зеркала? Тогда наш торрент специально для вас. Rutor.in неофициальное зеркало rutor. В случае если у Вас заблокирован rutor или вдруг Вы не можете на него зайти, то Вы без труда сможете скачать бесплатно и без рекламы последние новинки кино, игр, сериалов и прочего у нас, на Rutor.in. Не нужно использовать прокси, чтобы зайти на рутор, достаточно воспользоваться нашим ресурсом. Все новые фильмы, игры, сериалы, книги и музыка за 2013 и 2014 годы через торрент бесплатно. Скачивайте фильмы в хорошем качестве, игры для пк, xbox, playstation без регистрации. У нас вы найдете новые Зарубежные сериалы и Русские сериалы 2013, 2014, 2015 годов. Оставайтесь с нами, качайте любимые фильмы, игры, сериалы, книги и музыку.