img image001 image001 image001 image001 image001 image001 image001 image001 image001 image001 image001 image001 image001 image001 image001

Planets Sun Sun Sun
Статистика раздачи
Автор: PriZraK | Размер: 3.8 ГБ | Добавлен: 19 сен 2016
Раздают: 0    Качают: 0
Скачать торрент
Скачать торрент
Описание торрента

СообщениеДобавлено: 19 сен 2016 


Забытые игрушки / The Forgotten Toys
Страна: Великобритания
Производство: BBC Television Centre, Collingwood O'Hare Entertainment, Hibbert Ralph Animation Limited
Год выпуска: 1997
Сезон: 1
Жанр: мультфильм, приключения, семейный
Продолжительность: 26х ~00:11:00
Режиссер: Грэхэм Ральф
Автор сценария: Джеймс Стивенсон
В ролях: Боб Хоскинс, Джоанна Ламли, Эндрю Сакс, Кейт Сакс, Боб Сессионс, Шелли Томпсон
Описание: Что же случается с игрушками, когда о них забывают..? Кукла Энни и плюшевый мишка Тэдди больше не нужны своим владельцам, получившим в подарок на Рождество новые игрушки. Не желая закончить свои дни на помойке, наши герои отправляются на поиски нового дома…

Перевод: Профессиональный (полное дублирование)
Субтитры: нет

Качество: SATRip
Формат: АVI
Видео кодек: XviD
Аудио кодек: АС3
Видео: 704x528 (4:3), 25.000 fps, XviD ~1 700 kbps avg
Аудио: 48.0 kHz, AC3 Dolby Digital, 2/0 (L,R) ch, ~192 kbps
Релиз от: Thundr
General
Complete name : Забытые игрушки.1997-1999.XviD.SATRip.Thunder�1. Снова забыты.avi
Format : AVI
Format/Info : Audio Video Interleave
File size : 150 MiB
Duration : 11mn 0s
Overall bit rate : 1 902 Kbps
Movie name : 01. Forgotten Again
Director : SATRip by Thunder
Writing application : VirtualDubMod 1.5.10.3 | (build 2550/release)
Original source form/Name : Cartoon
Video #0
ID : 0
Format : MPEG-4 Visual
Format profile : Advanced Simple@L5
Format settings, BVOP : Yes
Format settings, QPel : No
Format settings, GMC : No warppoints
Format settings, Matrix : Default (H.263)
Codec ID : XVID
Codec ID/Hint : XviD
Duration : 11mn 0s
Bit rate : 1 700 Kbps
Width : 704 pixels
Height : 528 pixels
Display aspect ratio : 4:3
Frame rate : 25.000 fps
Color space : YUV
Chroma subsampling : 4:2:0
Bit depth : 8 bits
Scan type : Progressive
Bits/(Pixel*Frame) : 0.183
Stream size : 134 MiB (89%)
Writing library : XviD 1.2.1 (UTC 2008-12-04)
Audio #1
ID : 1
Format : AC-3
Format/Info : Audio Coding 3
Mode extension : CM (complete main)
Codec ID : 2000
Duration : 11mn 0s
Bit rate mode : Constant
Bit rate : 192 Kbps
Channel(s) : 2 channels
Channel positions : Front: L R
Sampling rate : 48.0 KHz
Bit depth : 16 bits
Stream size : 15.1 MiB (10%)
Alignment : Split accross interleaves
Interleave, duration : 40 ms (1.00 video frame)
Interleave, preload duration : 500 ms




   Похожие торренты   Торрент   Размер 
В этой теме нет новых непрочитанных сообщений. Игрушки Демона / Демонические игрушки / Кровожадные игрушки / Demonic Toys (1992) DVDRip-AVC

0 | 3

1.44 ГБ

В этой теме нет новых непрочитанных сообщений. Игрушки Демона / Демонические игрушки / Кровожадные игрушки / Demonic Toys (1992) DVDRip

2 | 2

1.37 ГБ

В этой теме нет новых непрочитанных сообщений. Демонические игрушки / Игрушки демона / Demonic Toys (1992) DVD5

0 | 2

3.18 ГБ

В этой теме нет новых непрочитанных сообщений. Игрушки / Toys (1992) DVDRip

0 | 3

1.53 ГБ

В этой теме нет новых непрочитанных сообщений. Игрушки / Toys (1992) WEB-DLRip | Р, Р2

33 | 6

1.44 ГБ

В этой теме нет новых непрочитанных сообщений. Игрушки / Toys (1992) DVDRip от Pasha74

0 | 1

1.66 ГБ

В этой теме нет новых непрочитанных сообщений. Игрушки из будущего / Time Toys (2016) WEB-DLRip | L

170 | 6

1.37 ГБ




Вы не можете начинать темы
Вы не можете отвечать на сообщения
Вы не можете редактировать свои сообщения
Вы не можете удалять свои сообщения
Вы не можете добавлять вложения

Перейти:  
Для Мосгорсуда, Роскомнадзора и рекламодателей: mosgorsud-torrent[собачка]yandex.ru
 Вход
ppkBB3cker v.2 © 2008-2014 @ PPK
[ Time : 0.048s | 15 Queries | GZIP : Off ]

Торрент трекер RUTOR.IN, Не можете зайти на rutor.org? Какой новый адрес рутор? Какое зеркало рутор? Не работает rutor.org и зеркала? Тогда наш торрент специально для вас. Rutor.in неофициальное зеркало rutor. В случае если у Вас заблокирован rutor или вдруг Вы не можете на него зайти, то Вы без труда сможете скачать бесплатно и без рекламы последние новинки кино, игр, сериалов и прочего у нас, на Rutor.in. Не нужно использовать прокси, чтобы зайти на рутор, достаточно воспользоваться нашим ресурсом. Все новые фильмы, игры, сериалы, книги и музыка за 2013 и 2014 годы через торрент бесплатно. Скачивайте фильмы в хорошем качестве, игры для пк, xbox, playstation без регистрации. У нас вы найдете новые Зарубежные сериалы и Русские сериалы 2013, 2014, 2015 годов. Оставайтесь с нами, качайте любимые фильмы, игры, сериалы, книги и музыку.
cron