img image001 image001 image001 image001 image001 image001 image001 image001 image001 image001 image001 image001 image001 image001 image001

Planets Sun Sun Sun
Статистика раздачи
Автор: PriZraK | Размер: 5.71 ГБ | Добавлен: 19 сен 2016
Раздают: 0    Качают: 0
Скачать торрент
Скачать торрент
Описание торрента

СообщениеДобавлено: 19 сен 2016 


Информация о фильме
    Русское название: Стальной гигант
    Оригинальное название: The Iron Giant
    Год выхода: 1999
    Жанр: мультфильм, фантастика, боевик, комедия, приключения, семейный
    Режиссер: Брэд Бёрд
    Выпущено: США
    Продолжительность: 01:29:58
    Перевод: Дублированный, Авторский (одноголосый закадровый)
    Роли озвучивали: Эли Мариентал, Вин Дизель, Дженнифер Энистон, Гарри Конник мл., Джеймс Гэммон, Клорис Личмен, Кристофер МакДональд, Джон Махони, М. Эммет Уолш, Джек Эйнджел
    Роли дублировали: Ирина Савина, Ольга Голованова, Дмитрий Филимонов, Дмитрий Матвеев, Борис Быстров, Юрий Саранцев


Сюжет фильма
    Жители тихой американской провинции становятся свидетелями ослепительной вспышки и падения огромного летающего объекта. Спустя несколько дней мальчуган по имени Хогарт Хьюз находит в окрестностях гигантского робота, прилетевшего на Землю из далекой космической галактики.
    Несмотря на свой грозный вид, инопланетный гость оказывается добрейшим созданием. Между ним и отважным мальчишкой завязывается настоящая дружба. Но узнавшие о существовании робота правительство и военные решили уничтожить пришельца. Хогарт - единственный, кто может спасти стального гиганта...


Файл
    Качество: BDRip 1080p (исходник Blu-ray Disc Remux)
    Формат: MKV
    Видео: 1920x800, 7496 Кбит/сек, 23,976 кадр/сек, AVC, x264, High@L4.1, 2.40:1, 0.204 Бит/[Пиксели*Кадры]
    Аудио 1: AC-3, 384 Кбит/сек, 6 канала(ов), 48,0 КГц - Дублированный / Русский
    Аудио 2: AC-3, 640 Кбит/сек, 6 канала(ов), 48,0 КГц - Одноголосый закадровый, Ю.Живов / Русский
    Аудио 3: AC-3, 640 Кбит/сек, 6 канала(ов), 48,0 КГц - Оригинал / Английский
    Субтитры: Русские | Полные, Английские | Полные
    Форсированные субтитры: Русские (На не переведенные места)
    Чаптеры (Главы): Есть
    Дополнительно: За исходный материал спасибо HDCLUB.
    Большое спасибо за помощь с проектом Нордер, BenderBEST и Парагматику за чистый голос Живова.
    Версия на Blu-ray вышла немного длиннее чем на DVD по этому есть места без перевода [00:15:50 - 00:16:29] [00:54:42 - 00:56:12] на эти места сделаны форсированные русские субтитры.



Автор Рипа: Группа: мы в VK



Format : Matroska
Format version : Version 2
File size : 5.71 GiB
Duration : 1 h 29 min
Overall bit rate : 9 092 kb/s
Movie name : The Iron Giant.(1999).BDRip.1080p.[envy]
Encoded date : UTC 2016-09-17 08:29:26
Writing application : mkvmerge v5.8.0 ('No Sleep / Pillow') built on Sep 2 2012 15:37:04
Writing library : libebml v1.2.3 + libmatroska v1.3.0
Video
ID : 1
Format : AVC
Format/Info : Advanced Video Codec
Format profile : High@L4.1
Format settings, CABAC : Yes
Format settings, ReFrames : 5 frames
Codec ID : V_MPEG4/ISO/AVC
Duration : 1 h 29 min
Bit rate : 7 496 kb/s
Width : 1 920 pixels
Height : 800 pixels
Display aspect ratio : 2.40:1
Frame rate mode : Constant
Frame rate : 23.976 (24000/1001) FPS
Color space : YUV
Chroma subsampling : 4:2:0
Bit depth : 8 bits
Scan type : Progressive
Bits/(Pixel*Frame) : 0.204
Stream size : 4.55 GiB (80%)
Title : The Iron Giant.(1999).BDRip.1080p.[envy]
Writing library : x264 core 148 r2705 3f5ed56
Encoding settings : cabac=1 / ref=5 / deblock=1:0:0 / analyse=0x3:0x113 / me=umh / subme=11 / psy=1 / psy_rd=1.00:0.00 / mixed_ref=1 / me_range=48 / chroma_me=1 / trellis=2 / 8x8dct=1 / cqm=0 / deadzone=21,11 / fast_pskip=0 / chroma_qp_offset=-2 / threads=12 / lookahead_threads=2 / sliced_threads=0 / nr=0 / decimate=1 / interlaced=0 / bluray_compat=0 / constrained_intra=0 / bframes=7 / b_pyramid=2 / b_adapt=2 / b_bias=0 / direct=3 / weightb=1 / open_gop=0 / weightp=2 / keyint=240 / keyint_min=23 / scenecut=40 / intra_refresh=0 / rc=2pass / mbtree=0 / bitrate=7496 / ratetol=2.0 / qcomp=0.60 / qpmin=0 / qpmax=69 / qpstep=4 / cplxblur=20.0 / qblur=0.5 / ip_ratio=1.40 / pb_ratio=1.30 / aq=2:1.00
Language : English
Default : Yes
Forced : No
Audio #1
ID : 2
Format : AC-3
Format/Info : Audio Coding 3
Mode extension : CM (complete main)
Format settings, Endianness : Big
Codec ID : A_AC3
Duration : 1 h 29 min
Bit rate mode : Constant
Bit rate : 384 kb/s
Channel(s) : 6 channels
Channel positions : Front: L C R, Side: L R, LFE
Sampling rate : 48.0 kHz
Frame rate : 31.250 FPS (1536 spf)
Compression mode : Lossy
Stream size : 247 MiB (4%)
Title : Dub
Language : Russian
Default : Yes
Forced : No
Audio #2
ID : 3
Format : AC-3
Format/Info : Audio Coding 3
Mode extension : CM (complete main)
Format settings, Endianness : Big
Codec ID : A_AC3
Duration : 1 h 29 min
Bit rate mode : Constant
Bit rate : 640 kb/s
Channel(s) : 6 channels
Channel positions : Front: L C R, Side: L R, LFE
Sampling rate : 48.0 kHz
Frame rate : 31.250 FPS (1536 spf)
Compression mode : Lossy
Stream size : 412 MiB (7%)
Title : AVO Живов
Language : Russian
Default : No
Forced : No
Audio #3
ID : 4
Format : AC-3
Format/Info : Audio Coding 3
Mode extension : CM (complete main)
Format settings, Endianness : Big
Codec ID : A_AC3
Duration : 1 h 29 min
Bit rate mode : Constant
Bit rate : 640 kb/s
Channel(s) : 6 channels
Channel positions : Front: L C R, Side: L R, LFE
Sampling rate : 48.0 kHz
Frame rate : 31.250 FPS (1536 spf)
Compression mode : Lossy
Stream size : 412 MiB (7%)
Title : Eng
Language : English
Default : No
Forced : No
Text #1
ID : 5
Format : UTF-8
Codec ID : S_TEXT/UTF8
Codec ID/Info : UTF-8 Plain Text
Title : Rus forced
Language : Russian
Default : Yes
Forced : Yes
Text #2
ID : 6
Format : UTF-8
Codec ID : S_TEXT/UTF8
Codec ID/Info : UTF-8 Plain Text
Title : Rus full
Language : Russian
Default : No
Forced : No
Text #3
ID : 7
Format : UTF-8
Codec ID : S_TEXT/UTF8
Codec ID/Info : UTF-8 Plain Text
Title : Eng SDH
Language : English
Default : No
Forced : No
Menu
00:00:00.000 : :Chapter 01
00:02:26.895 : :Chapter 02
00:06:11.536 : :Chapter 03
00:08:58.453 : :Chapter 04
00:10:31.338 : :Chapter 05
00:12:47.558 : :Chapter 06
00:14:53.934 : :Chapter 07
00:17:02.145 : :Chapter 08
00:18:55.300 : :Chapter 09
00:21:14.647 : :Chapter 10
00:24:31.927 : :Chapter 11
00:26:25.750 : :Chapter 12
00:28:33.711 : :Chapter 13
00:30:35.291 : :Chapter 14
00:32:58.225 : :Chapter 15
00:34:20.640 : :Chapter 16
00:36:49.957 : :Chapter 17
00:38:32.435 : :Chapter 18
00:41:00.957 : :Chapter 19
00:44:43.055 : :Chapter 20
00:46:29.661 : :Chapter 21
00:48:46.214 : :Chapter 22
00:51:11.651 : :Chapter 23
00:53:11.354 : :Chapter 24
00:56:07.322 : :Chapter 25
01:00:34.088 : :Chapter 26
01:03:30.473 : :Chapter 27
01:05:45.399 : :Chapter 28
01:07:39.095 : :Chapter 29
01:11:06.303 : :Chapter 30
01:12:22.211 : :Chapter 31
01:16:03.350 : :Chapter 32
01:18:43.718 : :Chapter 33
01:21:31.468 : :Chapter 34




   Похожие торренты   Торрент   Размер 
В этой теме нет новых непрочитанных сообщений. Стальной гигант / The Iron Giant (1999) BDRemux 1080p | D, A

16 | 7

25.68 ГБ

В этой теме нет новых непрочитанных сообщений. Стальной гигант / The Iron Giant (1999) HDTVRip 1080p

22 | 10

11.07 ГБ

В этой теме нет новых непрочитанных сообщений. Стальной гигант / The Iron Giant (1999) BDRip от HQCLUB | D

0 | 0

1.45 ГБ

В этой теме нет новых непрочитанных сообщений. Стальной гигант / The Iron Giant (1999) BDRip 720р от SuperMin | D

16 | 0

2.58 ГБ

В этой теме нет новых непрочитанных сообщений. Стальной гигант / The Iron Giant (1999) HDRip от Scarabey | D

92 | 3

1.45 ГБ

В этой теме нет новых непрочитанных сообщений. Стальной гигант / The Iron Giant (1999) HDTV 720p

755 | 32

2.9 ГБ

В этой теме нет новых непрочитанных сообщений. Стальной Гигант / The Iron Giant (1999) DVD5 от PskovLine

26 | 25

4.27 ГБ




Вы не можете начинать темы
Вы не можете отвечать на сообщения
Вы не можете редактировать свои сообщения
Вы не можете удалять свои сообщения
Вы не можете добавлять вложения

Перейти:  
Для Мосгорсуда, Роскомнадзора и рекламодателей: mosgorsud-torrent[собачка]yandex.ru
 Вход
ppkBB3cker v.2 © 2008-2014 @ PPK
[ Time : 0.378s | 18 Queries | GZIP : Off ]

cron