img image001 image001 image001 image001 image001 image001 image001 image001 image001 image001 image001 image001 image001 image001 image001

Planets Sun Sun Sun
Статистика раздачи
Автор: PriZraK | Размер: 2.62 ГБ | Добавлен: 19 сен 2016
Раздают: 0    Качают: 0
Скачать торрент
Скачать торрент
Описание торрента

СообщениеДобавлено: 19 сен 2016 

Информация о фильме
Название: Зверополис
Оригинальное название: Zootopia
Год выпуска: 2016
Страна: США
Жанр: мультфильм, боевик, комедия, криминал, детектив, приключения, семейный

Перевод: Профессиональный (многоголосый) FocusStudio
Субтитры: русские (FocusStudio), английские (Full), английские (SDH)
Продолжительность: 01:48:32

Режиссер: Байрон Ховард , Рич Мур , Джаред Буш
В ролях: Джиннифер Гудвин (Judy Hopps, озвучка), Джейсон Бейтман (Nick Wilde, озвучка), Идрис Эльба (Chief Bogo, озвучка), Дженни Слейт (Bellwether, озвучка), Нейт Торренс (Clawhauser, озвучка), Бонни Хант (Bonnie Hopps, озвучка), Дон Лейк (Stu Hopps, озвучка), Томми Чонг (Yax, озвучка), Дж.К. Симмонс (Mayor Lionheart, озвучка), Октавия Спенсер (Mrs. Otterton, озвучка), Алан Тьюдик (Duke Weaselton, озвучка), Шакира (Gazelle, озвучка)


Описание:
Добро пожаловать в Зверополис - современный город, населенный самыми разными животными, от огромных слонов до крошечных мышек. Зверополис разделен на районы, полностью повторяющие естественную среду обитания разных жителей - здесь есть и элитный район Площадь Сахары и неприветливый Тундратаун. В этом городе появляется новый офицер полиции, жизнерадостная зайчиха Джуди Хоппс, которая с первых дней работы понимает, как сложно быть маленькой и пушистой среди больших и сильных полицейских. Джуди хватается за первую же возможность проявить себя, несмотря на то, что ее партнером будет болтливый хитрый лис Ник Уайлд. Вдвоем им предстоит раскрыть сложное дело, от которого будет зависеть судьба всех обитателей Зверополиса.

Рейтинг:

MPAA: PG - Рекомендуется присутствие родителей

Качество: BDRip-AVC
Формат: MKV
Видео: AVC, 1024x428 (2.40:1), 2554 kbps, 23,976 fps, 0,243 bpp
Аудио №1: русский / AC3 / 5.1 / 48 kHz / 448 kbps
Аудио №2: английский / AC3 / 5.1 / 48 kHz / 448 kbps
Навигация по главам: есть


Релиз от:


General
Unique ID : 184104005284373929616877591790399993294 (0x8A81244437124567BE93DF5D4CD735CE)
Complete name : D:downloadZootopia.2016.BDRip-AVC by schultz R.G.Resident.mkv
Format : Matroska
Format version : Version 4 / Version 2
File size : 2.62 GiB
Duration : 1 h 48 min
Overall bit rate : 3 452 kb/s
Encoded date : UTC 2016-09-18 06:45:46
Writing application : mkvmerge v8.9.0 ('Father Daughter') 64bit
Writing library : libebml v1.3.3 + libmatroska v1.4.4
Video
ID : 1
Format : AVC
Format/Info : Advanced Video Codec
Format profile : High@L4.1
Format settings, CABAC : Yes
Format settings, ReFrames : 12 frames
Codec ID : V_MPEG4/ISO/AVC
Duration : 1 h 48 min
Bit rate : 2 554 kb/s
Width : 1 024 pixels
Height : 428 pixels
Display aspect ratio : 2.40:1
Frame rate mode : Constant
Frame rate : 23.976 FPS
Color space : YUV
Chroma subsampling : 4:2:0
Bit depth : 8 bits
Scan type : Progressive
Bits/(Pixel*Frame) : 0.243
Stream size : 1.94 GiB (74%)
Writing library : x264 core 146 r2538 121396c
Encoding settings : cabac=1 / ref=12 / deblock=1:-3:-3 / analyse=0x3:0x113 / me=umh / subme=11 / psy=1 / psy_rd=1.00:0.00 / mixed_ref=1 / me_range=48 / chroma_me=1 / trellis=2 / 8x8dct=1 / cqm=0 / deadzone=21,11 / fast_pskip=0 / chroma_qp_offset=-2 / threads=12 / lookahead_threads=3 / sliced_threads=0 / nr=0 / decimate=0 / interlaced=0 / bluray_compat=0 / constrained_intra=0 / bframes=13 / b_pyramid=2 / b_adapt=2 / b_bias=0 / direct=3 / weightb=1 / open_gop=0 / weightp=2 / keyint=240 / keyint_min=23 / scenecut=40 / intra_refresh=0 / rc_lookahead=40 / rc=2pass / mbtree=1 / bitrate=2554 / ratetol=1.0 / qcomp=0.60 / qpmin=0 / qpmax=69 / qpstep=4 / cplxblur=20.0 / qblur=0.5 / vbv_maxrate=14000 / vbv_bufsize=14000 / nal_hrd=none / filler=0 / ip_ratio=1.40 / aq=1:1.00
Language : English
Default : Yes
Forced : No
Audio #1
ID : 2
Format : AC-3
Format/Info : Audio Coding 3
Mode extension : CM (complete main)
Format settings, Endianness : Big
Codec ID : A_AC3
Duration : 1 h 48 min
Bit rate mode : Constant
Bit rate : 448 kb/s
Channel(s) : 6 channels
Channel positions : Front: L C R, Side: L R, LFE
Sampling rate : 48.0 kHz
Frame rate : 31.250 FPS (1536 spf)
Compression mode : Lossy
Stream size : 348 MiB (13%)
Language : Russian
Default : Yes
Forced : No
Audio #2
ID : 3
Format : AC-3
Format/Info : Audio Coding 3
Mode extension : CM (complete main)
Format settings, Endianness : Big
Codec ID : A_AC3
Duration : 1 h 48 min
Bit rate mode : Constant
Bit rate : 448 kb/s
Channel(s) : 6 channels
Channel positions : Front: L C R, Side: L R, LFE
Sampling rate : 48.0 kHz
Frame rate : 31.250 FPS (1536 spf)
Compression mode : Lossy
Stream size : 348 MiB (13%)
Language : English
Default : No
Forced : No
Text #1
ID : 4
Format : UTF-8
Codec ID : S_TEXT/UTF8
Codec ID/Info : UTF-8 Plain Text
Duration : 1 h 39 min
Bit rate : 123 b/s
Count of elements : 1426
Stream size : 89.6 KiB (0%)
Title : FocusStudio
Language : Russian
Default : No
Forced : No
Text #2
ID : 5
Format : UTF-8
Codec ID : S_TEXT/UTF8
Codec ID/Info : UTF-8 Plain Text
Duration : 1 h 38 min
Bit rate : 74 b/s
Count of elements : 1700
Stream size : 53.7 KiB (0%)
Title : Full
Language : English
Default : No
Forced : No
Text #3
ID : 6
Format : UTF-8
Codec ID : S_TEXT/UTF8
Codec ID/Info : UTF-8 Plain Text
Duration : 1 h 45 min
Bit rate : 82 b/s
Count of elements : 2295
Stream size : 64.3 KiB (0%)
Title : Full SDH
Language : English
Default : No
Forced : No
Menu
00:00:00.000 : en:Prologue
00:00:59.559 : en:Gideon Grey
00:05:50.099 : en:The Police Academy
00:10:05.563 : en:Welcome to Zootopia
00:14:31.537 : en:Meter Maid Duty
00:18:24.019 : en:Pawpsicles
00:26:03.353 : en:The Weasel Chase
00:30:57.438 : en:It's Called A Hustle
00:37:07.099 : en:The Naturalist Club
00:40:43.441 : en:Department Of 10
00:44:31.752 : en:Mr. Big
00:51:40.430 : en:Manchas Goes Savage
00:55:40.378 : en:The Gondola
01:00:48.269 : en:Help from Bellwether
01:03:37.855 : en:Cliffside Asylum
01:09:19.822 : en:We Cracked the Case
01:13:39.164 : en:Hopps Gives Up
01:17:07.372 : en:Hopps' Apology
01:21:52.365 : en:Doug's Laboratory
01:28:19.168 : en:The Natural History Museum
01:32:43.432 : en:Epilogue
01:36:12.141 : en:End Credits




   Похожие торренты   Торрент   Размер 
В этой теме нет новых непрочитанных сообщений. Зверополис / Zootopia (2016) BDRip 720p | Р

34 | 13

4.03 ГБ

В этой теме нет новых непрочитанных сообщений. Зверополис / Zootopia (2016) BDRip-AVC | iTunes

437 | 10

749.21 МБ

В этой теме нет новых непрочитанных сообщений. Зверополис / Zootopia (2016) BDRip-AVC от MediaClub | D, P, А

249 | 19

3.11 ГБ

В этой теме нет новых непрочитанных сообщений. Зверополис / Zootopia (2016) BDRip 720p | Лицензия

240 | 43

7.76 ГБ

В этой теме нет новых непрочитанных сообщений. Зверополис / Zootopia (2016) BDRip 1080p | D | Line

1087 | 33

5.61 ГБ

В этой теме нет новых непрочитанных сообщений. Зверополис / Zootopia (2016) BDRip от ExKinoRay | Лицензия

101 | 1

1.46 ГБ

В этой теме нет новых непрочитанных сообщений. Зверополис / Zootopia (2016) BDRip-AVC от New-Team | iTunes

617 | 14

1.41 ГБ




Вы не можете начинать темы
Вы не можете отвечать на сообщения
Вы не можете редактировать свои сообщения
Вы не можете удалять свои сообщения
Вы не можете добавлять вложения

Перейти:  
Для Мосгорсуда, Роскомнадзора и рекламодателей: mosgorsud-torrent[собачка]yandex.ru
 Вход
ppkBB3cker v.2 © 2008-2014 @ PPK
[ Time : 0.562s | 17 Queries | GZIP : Off ]

Торрент трекер RUTOR.IN, Не можете зайти на rutor.org? Какой новый адрес рутор? Какое зеркало рутор? Не работает rutor.org и зеркала? Тогда наш торрент специально для вас. Rutor.in неофициальное зеркало rutor. В случае если у Вас заблокирован rutor или вдруг Вы не можете на него зайти, то Вы без труда сможете скачать бесплатно и без рекламы последние новинки кино, игр, сериалов и прочего у нас, на Rutor.in. Не нужно использовать прокси, чтобы зайти на рутор, достаточно воспользоваться нашим ресурсом. Все новые фильмы, игры, сериалы, книги и музыка за 2013 и 2014 годы через торрент бесплатно. Скачивайте фильмы в хорошем качестве, игры для пк, xbox, playstation без регистрации. У нас вы найдете новые Зарубежные сериалы и Русские сериалы 2013, 2014, 2015 годов. Оставайтесь с нами, качайте любимые фильмы, игры, сериалы, книги и музыку.