img image001 image001 image001 image001 image001 image001 image001 image001 image001 image001 image001 image001 image001 image001 image001

Planets Sun Sun Sun
Статистика раздачи
Автор: PriZraK | Размер: 8.8 ГБ | Добавлен: 25 сен 2016
Раздают: 0    Качают: 89
Скачать торрент
Скачать торрент
Описание торрента

СообщениеДобавлено: 25 сен 2016 


Информация о фильме
Название: Кингсглейв: Последняя фантазия XV
Оригинальное название: Kingsglaive: Final Fantasy XV
Год выхода: 2016
Жанр: мультфильм, фантастика, фэнтези, драма, приключения
Режиссер: Такэси Нодзуэ
В ролях: Аарон Пол, Лина Хиди, Шон Бин, Нейл Ньюбон, Аманда Пиери, Джон Кэмплинг, Адриан Буше, Андреа Тивадар, Грег Блэкфорд
О фильме:
Волшебное королевство Люцис является домом для священного Кристалла, но враждебная империя Нифльхейм не остановится ни перед чем, чтобы захватить реликвию. Король Люциса Регис возглавляет элитный отряд солдат, именуемых «Кингсглейв». Вооружившись магией короля, Никс Ульрик и его верные товарищи из Кингсглейв становятся на защиту столицы Инсомния, чтобы остановить неумолимое наступление имперской армии.
Перед превосходящими силами Нифльхейма Королю Регису ничего не остаётся, как согласиться на ультиматум, уступив все свои земли за пределами столицы и женив своего сына Ноктиса на Леди Лунафрее, бывшей принцессе ныне захваченной земли Тенебра.
В разбушевавшейся войне махинации Нифльхейма превращают Инсомнию в грандиозное поле битвы, затягивая Никса в борьбу за выживание всего королевства.

Страна: Япония / Beijing Going Zoom Media, Shanghai New Culture Media Group
Продолжительность: 01:55:33
Перевод: Профессиональный (многоголосый закадровый) Лицензия (Blu-ray CEE)
Файл
Кодек: x264
Качество: BDRip 1080p
Видео: 1920x800 (2.40:1), 23,976 fps, AVC (H.264), High@L4.1, ~10000 Kbps avg, 0.272 bit/pixel
Звук: Русский, английский (AC3, 6 ch, 448 Кбит/с)
Субтитры: Русские, английские
General
Unique ID : 193424474676297136500057940924121674517 (0x918432E2F5EF0E04951798D6C58AF315)
Complete name : J:СборкаКингсглейв. Последняя фантазия XV - Kingsglaive. Final Fantasy XV.2016 HQ 1080p Blu-Ray x264.АС3.mkv
Format : Matroska
Format version : Version 4 / Version 2
File size : 8.80 GiB
Duration : 1h 55mn
Overall bit rate : 10.9 Mbps
Encoded date : UTC 2016-09-24 11:41:12
Writing application : mkvmerge v7.3.0 ('Nouages') 32bit built on Oct 22 2014 18:44:01
Writing library : libebml v1.3.0 + libmatroska v1.4.1
DURATION : 01:55:04.397000000
NUMBER_OF_FRAMES : 1237
NUMBER_OF_BYTES : 40396
_STATISTICS_WRITING_APP : mkvmerge v7.3.0 ('Nouages') 32bit built on Oct 22 2014 18:44:01
_STATISTICS_WRITING_DATE_UTC : 2016-09-24 11:41:12
_STATISTICS_TAGS : BPS DURATION NUMBER_OF_FRAMES NUMBER_OF_BYTES
Video #1
ID : 1
Format : AVC
Format/Info : Advanced Video Codec
Format profile : High@L4.1
Format settings, CABAC : Yes
Format settings, ReFrames : 5 frames
Codec ID : V_MPEG4/ISO/AVC
Duration : 1h 55mn
Bit rate : 10 000 Kbps
Width : 1 920 pixels
Height : 800 pixels
Display aspect ratio : 2.40:1
Frame rate mode : Constant
Frame rate : 23.976 fps
Color space : YUV
Chroma subsampling : 4:2:0
Bit depth : 8 bits
Scan type : Progressive
Bits/(Pixel*Frame) : 0.272
Stream size : 7.90 GiB (90%)
Writing library : x264 core 148 r2705 3f5ed56
Encoding settings : cabac=1 / ref=5 / deblock=1:-2:-1 / analyse=0x3:0x133 / me=umh / subme=10 / psy=1 / psy_rd=1.00:1.50 / mixed_ref=1 / me_range=32 / chroma_me=1 / trellis=2 / 8x8dct=1 / cqm=0 / deadzone=21,11 / fast_pskip=1 / chroma_qp_offset=-4 / threads=25 / lookahead_threads=4 / sliced_threads=0 / nr=0 / decimate=0 / interlaced=0 / bluray_compat=0 / constrained_intra=0 / bframes=8 / b_pyramid=0 / b_adapt=2 / b_bias=0 / direct=3 / weightb=1 / open_gop=0 / weightp=2 / keyint=230 / keyint_min=23 / scenecut=288 / intra_refresh=0 / rc_lookahead=60 / rc=2pass / mbtree=1 / bitrate=10000 / ratetol=1.0 / qcomp=0.90 / qpmin=3 / qpmax=69 / qpstep=4 / cplxblur=20.0 / qblur=0.5 / ip_ratio=1.40 / aq=1:1.00
Language : English
Default : Yes
Forced : No
Color primaries : BT.709
Transfer characteristics : BT.709
Matrix coefficients : BT.709
DURATION : 01:55:33.927000000
NUMBER_OF_FRAMES : 166248
NUMBER_OF_BYTES : 8667601975
_STATISTICS_WRITING_APP : mkvmerge v7.3.0 ('Nouages') 32bit built on Oct 22 2014 18:44:01
_STATISTICS_WRITING_DATE_UTC : 2016-09-24 11:41:12
_STATISTICS_TAGS : BPS DURATION NUMBER_OF_FRAMES NUMBER_OF_BYTES
Audio #2
ID : 2
Format : AC-3
Format/Info : Audio Coding 3
Mode extension : CM (complete main)
Format settings, Endianness : Big
Codec ID : A_AC3
Duration : 1h 55mn
Bit rate mode : Constant
Bit rate : 448 Kbps
Channel(s) : 6 channels
Channel positions : Front: L C R, Side: L R, LFE
Sampling rate : 48.0 KHz
Bit depth : 16 bits
Compression mode : Lossy
Stream size : 370 MiB (4%)
Title : MVO (Blu-ray CEE)
Language : Russian
Default : Yes
Forced : No
Audio #3
ID : 3
Format : AC-3
Format/Info : Audio Coding 3
Mode extension : CM (complete main)
Format settings, Endianness : Big
Codec ID : A_AC3
Duration : 1h 55mn
Bit rate mode : Constant
Bit rate : 448 Kbps
Channel(s) : 6 channels
Channel positions : Front: L C R, Side: L R, LFE
Sampling rate : 48.0 KHz
Bit depth : 16 bits
Compression mode : Lossy
Stream size : 370 MiB (4%)
Language : English
Default : No
Forced : No
Text #4
ID : 4
Format : UTF-8
Codec ID : S_TEXT/UTF8
Codec ID/Info : UTF-8 Plain Text
Language : Russian
Default : No
Forced : No
Text #5
ID : 5
Format : UTF-8
Codec ID : S_TEXT/UTF8
Codec ID/Info : UTF-8 Plain Text
Language : English
Default : No
Forced : No





   Похожие торренты   Торрент   Размер 
В этой теме нет новых непрочитанных сообщений. Кингсглейв: Последняя фантазия XV / Kingsglaive: Final Fantasy XV (2016) BDRip 1080p от MediaClub | Лицензия

527 | 103

5.91 ГБ

В этой теме нет новых непрочитанных сообщений. Кингсглейв: Последняя фантазия XV / Kingsglaive: Final Fantasy XV (2016) BDRip-AVC от ExKinoRay | Лицензия

111 | 18

2.34 ГБ

В этой теме нет новых непрочитанных сообщений. Кингсглейв: Последняя фантазия XV / Kingsglaive: Final Fantasy XV (2016) BDRip от ExKinoRay | Лицензия

447 | 102

1.46 ГБ

В этой теме нет новых непрочитанных сообщений. Кингсглейв: Последняя фантазия XV / Kingsglaive: Final Fantasy XV (2016) BDRip от MegaPeer | Лицензия

157 | 52

2.17 ГБ

В этой теме нет новых непрочитанных сообщений. Кингсглейв: Последняя фантазия XV / Kingsglaive: Final Fantasy XV (2016) BDRip от HQCLUB | P | Лицензия

22 | 1

2.18 ГБ

В этой теме нет новых непрочитанных сообщений. Кингсглейв: Последняя фантазия XV / Kingsglaive: Final Fantasy XV (2016) BDRip 1080p | iTunes

798 | 212

8.26 ГБ

В этой теме нет новых непрочитанных сообщений. Кингсглейв: Последняя фантазия XV / Kingsglaive: Final Fantasy XV (2016) BDRip 720р от SuperMin | P | Лицензия

190 | 94

3.93 ГБ




Вы не можете начинать темы
Вы не можете отвечать на сообщения
Вы не можете редактировать свои сообщения
Вы не можете удалять свои сообщения
Вы не можете добавлять вложения

Перейти:  
Для Мосгорсуда, Роскомнадзора и рекламодателей: mosgorsud-torrent[собачка]yandex.ru
 Вход
ppkBB3cker v.2 © 2008-2014 @ PPK
[ Time : 3.137s | 14 Queries | GZIP : Off ]
CGP output time : 0.020s | 5 Queries | GZIP : Off

Торрент трекер RUTOR.IN, Не можете зайти на rutor.org? Какой новый адрес рутор? Какое зеркало рутор? Не работает rutor.org и зеркала? Тогда наш торрент специально для вас. Rutor.in неофициальное зеркало rutor. В случае если у Вас заблокирован rutor или вдруг Вы не можете на него зайти, то Вы без труда сможете скачать бесплатно и без рекламы последние новинки кино, игр, сериалов и прочего у нас, на Rutor.in. Не нужно использовать прокси, чтобы зайти на рутор, достаточно воспользоваться нашим ресурсом. Все новые фильмы, игры, сериалы, книги и музыка за 2013 и 2014 годы через торрент бесплатно. Скачивайте фильмы в хорошем качестве, игры для пк, xbox, playstation без регистрации. У нас вы найдете новые Зарубежные сериалы и Русские сериалы 2013, 2014, 2015 годов. Оставайтесь с нами, качайте любимые фильмы, игры, сериалы, книги и музыку.