img image001 image001 image001 image001 image001 image001 image001 image001 image001 image001 image001 image001 image001 image001 image001

Planets Sun Sun Sun
Статистика раздачи
Автор: PriZraK | Размер: 976.84 МБ | Добавлен: 29 сен 2016
Раздают: 115    Качают: 16
Скачать торрент
Скачать торрент
Описание торрента

СообщениеДобавлено: 29 сен 2016 


Первое свидание Райли / Riley's First Date?
Страна: США
Производство: Pixar Animation Studios
Год выпуска: 2015
Жанр: мультфильм, короткометражка, мелодрама, комедия, семейный
Продолжительность: 00:04:40
Режиссер: Джош Кули
Автор сценария: Джош Кули
В ролях: Пит Доктер, Бен Кокс, Кайл МакЛоклен, Дайан Лэйн, Карлос Аласраки, Кейтлин Диас, Джош Кули, Шерри Линн, Билл Хейдер
Описание: В жизни каждого ребёнка наступает момент, когда он вырастает, и его отношения со сверстниками переходят на новый уровень. Вот только для родителей это всегда становится неожиданностью, сколько бы лет ни исполнилось их чаду. Мистер и миссис Андерсон так же оказались не готовы к тому, что у их дочери появится молодой человек...

Перевод: Профессиональный (полное дублирование)
Субтитры: русские, английские

Качество: BDRemux 1080p
Формат: МКV
Видео кодек: AVC
Аудио кодек: АС3 | DTS
Видео: 1920x1080 (16:9), 23.976 fps, MPEG-4 AVC ~23.6 Мbps avg
Аудио №1: 48.0 kHz, AC3 Dolby Digital, 3/2 (L,C,R,l,r) + LFE ch, ~640 kbps | RUS
Аудио №2: 48.0 kHz, Digital Theater Systems Master Audio, 8 ch, ~4612 kbps / 24-bit | ENG
Аудио №3: 48.0 kHz, AC3 Dolby Digital, 2/0 (L,R) ch, ~320 kbps | ENG / Commentary
Формат субтитров: UTF-8 Plain Text
Дата премьеры (мир): 13 октября 2015

Релиз от: -Azureus-
General
Уникальный идентификатор : 186576636082373791546055417316012503274 (0x8C5D5A60874D474E83C99F2423FCB0EA)
Полное имя : Riley's First Date.2015.BDRemux 1080p.mkv
Формат : Matroska
Версия формата : Version 4 / Version 2
Размер файла : 977 Мбайт
Продолжительность : 4 м. 40 с.
Режим общего битрейта : Переменный
Общий поток : 29,2 Мбит/сек
Название фильма : Riley's First Date.2015.BDRemux 1080p -Azureus-
Дата кодирования : UTC 2015-11-08 15:23:32
Программа кодирования : mkvmerge v7.1.0 ('Good Love') 32bit built on Jul 27 2014 12:59:18
Библиотека кодирования : libebml v1.3.0 + libmatroska v1.4.1
DURATION : 00:04:32.813000000
NUMBER_OF_FRAMES : 87
NUMBER_OF_BYTES : 2727
_STATISTICS_WRITING_APP : mkvmerge v7.1.0 ('Good Love') 32bit built on Jul 27 2014 12:59:18
_STATISTICS_WRITING_DATE_UTC : 2015-11-08 15:23:32
Видео
Идентификатор : 1
Формат : AVC
Формат/Информация : Advanced Video Codec
Профиль формата : High@L4.1
Параметр CABAC формата : Да
Параметр ReFrames формата : 4 кадра
Идентификатор кодека : V_MPEG4/ISO/AVC
Продолжительность : 4 м. 40 с.
Вид битрейта : Переменный
Максимальный битрейт : 32,0 Мбит/сек
Ширина : 1920 пикселей
Высота : 1080 пикселей
Соотношение сторон : 16:9
Режим частоты кадров : Постоянный
Частота кадров : 23,976 кадра/сек
Цветовое пространство : YUV
Субдискретизация насыщенности : 4:2:0
Битовая глубина : 8 бит
Тип развёртки : Прогрессивная
Default : Да
Forced : Нет
Аудио #1
Идентификатор : 2
Формат : AC-3
Формат/Информация : Audio Coding 3
Расширение режима : CM (complete main)
Параметр Endianness формата : Big
Идентификатор кодека : A_AC3
Продолжительность : 4 м. 40 с.
Вид битрейта : Постоянный
Битрейт : 640 Кбит/сек
Каналы : 6 каналов
Расположение каналов : Front: L C R, Side: L R, LFE
Частота : 48,0 КГц
Метод сжатия : С потерями
Размер потока : 21,4 Мбайт (2%)
Заголовок : DUB
Язык : Russian
Default : Да
Forced : Нет
Аудио #2
Идентификатор : 3
Формат : DTS
Формат/Информация : Digital Theater Systems
Профиль формата : MA / Core
Режим : 16
Параметр Endianness формата : Big
Идентификатор кодека : A_DTS
Продолжительность : 4 м. 40 с.
Вид битрейта : Переменный
Битрейт : Неизвестно / 1509 Кбит/сек
Каналы : 8 каналов / 6 каналов
Расположение каналов : Front: L C R, Side: L R, Back: L R, LFE / Front: L C R, Side: L R, LFE
Частота : 48,0 КГц
Битовая глубина : 24 бит
Метод сжатия : Без потерь / Lossy
Заголовок : ENG
Язык : English
Default : Нет
Forced : Нет
Аудио #3
Идентификатор : 4
Формат : AC-3
Формат/Информация : Audio Coding 3
Профиль формата : Dolby Digital
Расширение режима : CM (complete main)
Параметр Endianness формата : Big
Идентификатор кодека : A_AC3
Продолжительность : 4 м. 40 с.
Вид битрейта : Постоянный
Битрейт : 320 Кбит/сек
Каналы : 2 канала
Расположение каналов : Front: L R
Частота : 48,0 КГц
Метод сжатия : С потерями
Размер потока : 10,7 Мбайт (1%)
Заголовок : ENG - coment
Язык : English
Default : Нет
Forced : Нет
Текст #1
Идентификатор : 5
Формат : UTF-8
Идентификатор кодека : S_TEXT/UTF8
Идентификатор кодека/Информация : UTF-8 Plain Text
Заголовок : Rus Sub
Язык : Russian
Default : Нет
Forced : Нет
Текст #2
Идентификатор : 6
Формат : UTF-8
Идентификатор кодека : S_TEXT/UTF8
Идентификатор кодека/Информация : UTF-8 Plain Text
Заголовок : Eng Sub
Язык : English
Default : Нет
Forced : Нет
Меню
00:00:00.000 : en:00:00:00.000
00:00:58.350 : en:00:00:58.350
00:02:45.874 : en:00:02:45.874
00:03:10.107 : en:00:03:10.107



   Похожие торренты   Торрент   Размер 
В этой теме нет новых непрочитанных сообщений. Первое свидание Райли / Riley's First Date? (2015) BDRip 1080p от NNNB | D

2022 | 33

322.71 МБ

В этой теме нет новых непрочитанных сообщений. Первое свидание Райли / Riley's First Date? (2015) BDRip | D

79 | 22

97.38 МБ

В этой теме нет новых непрочитанных сообщений. Первое свидание Райли / Riley's First Date? (2015) BDRip 720p | D

109 | 7

185.77 МБ

В этой теме нет новых непрочитанных сообщений. Райли на повторе / Riley Rewind [s01] (2013) WEB-DL 1080p | Гараж Дубляж

29 | 3

913.75 МБ

В этой теме нет новых непрочитанных сообщений. Райли на повторе / Riley Rewind [s01] (2013) WEB-DL 720p | Гараж Дубляж

3 | 3

645.29 МБ

В этой теме нет новых непрочитанных сообщений. Свидание со звездой / Выиграй свидание с Тедом Хамильтоном / Win a Date with Tad Hamilton (2004) HDTVRip-AVC от NovaLan

44 | 13

2.2 ГБ

В этой теме нет новых непрочитанных сообщений. Безумное свидание / Date Night (2010) Blu-Ray 1080p | Расширенная версия

1 | 3

40.15 ГБ




Вы не можете начинать темы
Вы не можете отвечать на сообщения
Вы не можете редактировать свои сообщения
Вы не можете удалять свои сообщения
Вы не можете добавлять вложения

Перейти:  
Для Мосгорсуда, Роскомнадзора и рекламодателей: mosgorsud-torrent[собачка]yandex.ru
 Вход
ppkBB3cker v.2 © 2008-2014 @ PPK
[ Time : 0.023s | 14 Queries | GZIP : On ]

Торрент трекер RUTOR.IN, Не можете зайти на rutor.org? Какой новый адрес рутор? Какое зеркало рутор? Не работает rutor.org и зеркала? Тогда наш торрент специально для вас. Rutor.in неофициальное зеркало rutor. В случае если у Вас заблокирован rutor или вдруг Вы не можете на него зайти, то Вы без труда сможете скачать бесплатно и без рекламы последние новинки кино, игр, сериалов и прочего у нас, на Rutor.in. Не нужно использовать прокси, чтобы зайти на рутор, достаточно воспользоваться нашим ресурсом. Все новые фильмы, игры, сериалы, книги и музыка за 2013 и 2014 годы через торрент бесплатно. Скачивайте фильмы в хорошем качестве, игры для пк, xbox, playstation без регистрации. У нас вы найдете новые Зарубежные сериалы и Русские сериалы 2013, 2014, 2015 годов. Оставайтесь с нами, качайте любимые фильмы, игры, сериалы, книги и музыку.