img image001 image001 image001 image001 image001 image001 image001 image001 image001 image001 image001 image001 image001 image001 image001

Planets Sun Sun Sun
Статистика раздачи
Автор: PriZraK | Размер: 19.43 ГБ | Добавлен: 05 окт 2016
Раздают: 30    Качают: 4
Скачать торрент
Скачать торрент
Описание торрента

СообщениеДобавлено: 05 окт 2016 

Информация о фильме
Название: Ледниковый период: Столкновение неизбежно
Оригинальное название: Ice Age: Collision Course
Год выхода: 2016
Жанр: Мультфильм, полнометражный, комедия, приключения, семейный
Режиссер: Майк Тёрмайер, Гален Т. Чу
В ролях: Ник Офферман, Адам Дивайн, Саймон Пегг, Дженнифер Лопез, Мелисса Рауш, Стефани Беатриз, Джон Легуизамо, Макс Гринфилд, Шонн Уильям Скотт, Дэнис Лири
О фильме:
Отчаянная погоня за неуловимым желудем катапультирует Скрата прямо в космос, где он случайно запускает целую серию космических событий. Именно они изменят весь мир Ледникового периода и станут реальной угрозой для него. Чтобы спастись, Сид, Мэнни, Диего и остальные звери должны покинуть свои дома, отправиться в забавное и захватывающее приключение в экзотические новые земли и встретиться со множеством красочных новых персонажей.

Страна: США
Студия: 20th Century Fox Animation, Blue Sky Studios
Продолжительность: 01:35:05
Перевод: Дублированный | iTunes
Файл
Кодек: MPEG-4
Качество: BDRemux 1080p
Видео: 1920x1080, 24.4 Mbit/s, 23.976 fps
Звук:
Аудио #01: 48 kHz, AC3, 5.1, 384 Kbps | Дублированный | iTunes |
Аудио #02: 48 kHz, DTS-HD MA, 7.1, 4618 kbps | Оригинал |
Субтитры: Русские (full, forced), английские
General
Unique ID : 243445437738547477187767577771554191958 (0xB725E2C62E83A99DA704279AC4253A56)
Complete name : H:VideoIce.Age.Collision.Course.2016.BDREMUX.1080p.ExKinoRay.mkv
Format : Matroska
Format version : Version 4 / Version 2
File size : 19.4 GiB
Duration : 1 h 34 min
Overall bit rate mode : Variable
Overall bit rate : 29.4 Mb/s
Movie name : build by ***селезень***
Encoded date : UTC 2016-10-04 13:11:25
Writing application : mkvmerge v8.3.0 ('Over the Horizon') 64bit
Writing library : libebml v1.3.1 + libmatroska v1.4.2
Video
ID : 1
Format : AVC
Format/Info : Advanced Video Codec
Format profile : High@L4.1
Format settings, CABAC : Yes
Format settings, ReFrames : 4 frames
Codec ID : V_MPEG4/ISO/AVC
Duration : 1 h 34 min
Bit rate mode : Variable
Bit rate : 24.4 Mb/s
Maximum bit rate : 30.0 Mb/s
Width : 1 920 pixels
Height : 1 080 pixels
Display aspect ratio : 16:9
Frame rate mode : Constant
Frame rate : 23.976 (24000/1001) FPS
Color space : YUV
Chroma subsampling : 4:2:0
Bit depth : 8 bits
Scan type : Progressive
Bits/(Pixel*Frame) : 0.491
Stream size : 16.1 GiB (83%)
Title : build by ***селезень***
Language : English
Default : Yes
Forced : No
Audio #1
ID : 2
Format : AC-3
Format/Info : Audio Coding 3
Mode extension : CM (complete main)
Format settings, Endianness : Big
Codec ID : A_AC3
Duration : 1 h 34 min
Bit rate mode : Constant
Bit rate : 384 kb/s
Channel(s) : 6 channels
Channel positions : Front: L C R, Side: L R, LFE
Sampling rate : 48.0 kHz
Frame rate : 31.250 FPS (1536 spf)
Compression mode : Lossy
Delay relative to video : 2 s 0 ms
Stream size : 260 MiB (1%)
Title : Dub [iTunes]
Language : Russian
Default : Yes
Forced : No
Audio #2
ID : 3
Format : DTS
Format/Info : Digital Theater Systems
Format profile : MA / ES Matrix / Core
Mode : 16
Format settings, Endianness : Big
Codec ID : A_DTS
Duration : 1 h 34 min
Bit rate mode : Variable / Constant / Constant
Bit rate : 4 618 kb/s / 1 509 kb/s / 1 509 kb/s
Channel(s) : 8 channels / 7 channels / 6 channels
Channel positions : Front: L C R, Side: L R, Back: L R, LFE / Front: L C R, Side: L R, Back: C, LFE / Front: L C R, Side: L R, LFE
Sampling rate : 48.0 kHz
Frame rate : 93.750 FPS (512 spf)
Bit depth : 24 bits
Compression mode : Lossless / Lossy / Lossy
Stream size : 3.05 GiB (16%)
Title : Original
Language : English
Default : No
Forced : No
Text #1
ID : 4
Format : UTF-8
Codec ID : S_TEXT/UTF8
Codec ID/Info : UTF-8 Plain Text
Duration : 24 min
Bit rate : 0 b/s
Count of elements : 2
Stream size : 109 Bytes (0%)
Title : Forced [iTunes]
Language : Russian
Default : Yes
Forced : No
Text #2
ID : 5
Format : UTF-8
Codec ID : S_TEXT/UTF8
Codec ID/Info : UTF-8 Plain Text
Duration : 1 h 23 min
Bit rate : 99 b/s
Count of elements : 1221
Stream size : 61.1 KiB (0%)
Title : Full [iTunes]
Language : Russian
Default : No
Forced : No
Text #3
ID : 6
Format : UTF-8
Codec ID : S_TEXT/UTF8
Codec ID/Info : UTF-8 Plain Text
Duration : 1 h 23 min
Bit rate : 60 b/s
Count of elements : 1221
Stream size : 36.9 KiB (0%)
Title : Full
Language : English
Default : No
Forced : No
Menu
00:00:00.000 : en:1
00:03:07.103 : en:2
00:05:22.321 : en:3
00:09:04.084 : en:4
00:13:20.298 : en:5
00:18:03.748 : en:6
00:20:48.579 : en:7
00:23:08.302 : en:8
00:27:27.894 : en:9
00:30:13.976 : en:10
00:32:52.342 : en:11
00:36:11.582 : en:12
00:39:31.448 : en:13
00:42:56.694 : en:14
00:47:33.011 : en:15
00:51:09.727 : en:16
00:55:48.756 : en:17
01:01:07.449 : en:18
01:05:04.394 : en:19
01:09:37.291 : en:20
01:14:34.880 : en:21
01:17:39.522 : en:22
01:21:41.055 : en:23
01:24:44.488 : en:24


Релиз от: Автор релиза:



   Похожие торренты   Торрент   Размер 
В этой теме нет новых непрочитанных сообщений. Ледниковый период: Столкновение неизбежно / Ice Age: Collision Course (2016) BDRemux 1080p от ExKinoRay | 3D-Video | iTunes

35 | 9

30.42 ГБ

В этой теме нет новых непрочитанных сообщений. Ледниковый период: Столкновение неизбежно / Ice Age: Collision Course (2016) BDRemux 1080p от ExKinoRay | Лицензия

30 | 28

20.27 ГБ

В этой теме нет новых непрочитанных сообщений. Ледниковый период: Столкновение неизбежно / Ice Age: Collision Course (2016) WEB-DL 1080p от ExKinoRay | iTunes

1401 | 95

3.54 ГБ

В этой теме нет новых непрочитанных сообщений. Ледниковый период: Столкновение неизбежно / Ice Age: Collision Course (2016) BDRemux 1080p от ExKinoRay | 3D-Video | Лицензия

11 | 10

31.37 ГБ

В этой теме нет новых непрочитанных сообщений. Ледниковый период: Столкновение неизбежно / Ice Age: Collision Course (2016) BDRip 1080p от ExKinoRay | iTunes

168 | 11

7.76 ГБ

В этой теме нет новых непрочитанных сообщений. Ледниковый период: Столкновение неизбежно / Ice Age: Collision Course (2016) BDRip от ExKinoRay | iTunes

83 | 6

1.42 ГБ

В этой теме нет новых непрочитанных сообщений. Ледниковый период: Столкновение неизбежно / Ice Age: Collision Course (2016) BDRip-AVC от ExKinoRay | iTunes Russia

111 | 50

1.42 ГБ




Вы не можете начинать темы
Вы не можете отвечать на сообщения
Вы не можете редактировать свои сообщения
Вы не можете удалять свои сообщения
Вы не можете добавлять вложения

Перейти:  
Для Мосгорсуда, Роскомнадзора и рекламодателей: mosgorsud-torrent[собачка]yandex.ru
 Вход
ppkBB3cker v.2 © 2008-2014 @ PPK
[ Time : 1.542s | 15 Queries | GZIP : Off ]
CGP output time : 0.017s | 5 Queries | GZIP : Off

Торрент трекер RUTOR.IN, Не можете зайти на rutor.org? Какой новый адрес рутор? Какое зеркало рутор? Не работает rutor.org и зеркала? Тогда наш торрент специально для вас. Rutor.in неофициальное зеркало rutor. В случае если у Вас заблокирован rutor или вдруг Вы не можете на него зайти, то Вы без труда сможете скачать бесплатно и без рекламы последние новинки кино, игр, сериалов и прочего у нас, на Rutor.in. Не нужно использовать прокси, чтобы зайти на рутор, достаточно воспользоваться нашим ресурсом. Все новые фильмы, игры, сериалы, книги и музыка за 2013 и 2014 годы через торрент бесплатно. Скачивайте фильмы в хорошем качестве, игры для пк, xbox, playstation без регистрации. У нас вы найдете новые Зарубежные сериалы и Русские сериалы 2013, 2014, 2015 годов. Оставайтесь с нами, качайте любимые фильмы, игры, сериалы, книги и музыку.