img image001 image001 image001 image001 image001 image001 image001 image001 image001 image001 image001 image001 image001 image001 image001

Planets Sun Sun Sun
Статистика раздачи
Автор: PriZraK | Размер: 4.57 ГБ | Добавлен: 09 окт 2016
Раздают: 62    Качают: 0
Скачать торрент
Скачать торрент
Описание торрента

СообщениеДобавлено: 09 окт 2016 


Информация о фильме
Название: Шрэк
Оригинальное название: Shrek
Год выхода: 2001
Жанр: Фэнтези, комедия, приключения, семейный, мультфильм, полнометражный
Режиссер: Эндрю Адамсон, Вики Дженсон
В ролях: Майк Майерс, Эдди Мёрфи, Кэмерон Диаз, Джон Литгоу, Венсан Кассель, Питер Дэннис, Клив Пирс, Джим Каммингс, Бобби Блок, Крис Миллер
О фильме:
Жил да был в сказочном государстве большой зеленый великан по имени Шрек. Жил он в гордом одиночестве в лесу, на болоте, которое считал своим. Но однажды злобный коротышка - лорд Фаркуад, правитель волшебного королевства, безжалостно согнал на Шреково болото всех сказочных обитателей.
И беспечной жизни зеленого тролля пришел конец. Но лорд Фаркуад пообещал вернуть Шреку болото, если великан добудет ему прекрасную принцессу Фиону, которая томится в неприступной башне, охраняемой огнедышащим драконом...
Потрясающий мультфильм занял свое заслуженное место в пятерке самых кассовых мультфильмов всех времен.

Страна: США, DreamWorks Animation
Продолжительность: 01:30:08
Перевод: Дублированный [Лицензия]
Файл
Кодек: HEVC
Качество: BDRip 1080p
Видео: HEVC, 1920x1080, 23,976 fps, ~5519 kb/s | 8 bits
Аудио #1: AC-3, 48.0 KHz, 6 ch, 640 Kbps | Русский
Аудио #2: AC-3, 48.0 KHz, 6 ch, 640 Kbps | Английский
Аудио #3: AC-3, 48.0 KHz, 2 ch, 320 Kbps | Украинский
Субтитры: English (Blu-ray CEE), Russian (Blu-ray CEE), Russian (SDH) (Kinomania), Ukrainian (Blu-ray CEE)
Семпл
General
Unique ID : 183445434087274119522038013338520495547 (0x8A024E33157F782FA61395378B85A5BB)
Complete name : D:[HEVC]Shrek.1080p.[HEVC].[Wanterlude].mkv
Format : Matroska
Format version : Version 4 / Version 2
File size : 4.57 GiB
Duration : 1 h 30 min
Overall bit rate : 7 263 kb/s
Movie name : Shrek [HEVC] [Wanterlude]
Encoded date : UTC 2016-09-20 16:50:40
Writing application : mkvmerge v9.4.2 ('So High') 64bit
Writing library : libebml v1.3.4 + libmatroska v1.4.5
Video
ID : 1
Format : HEVC
Format/Info : High Efficiency Video Coding
Format profile : Main@L4@Main
Codec ID : V_MPEGH/ISO/HEVC
Duration : 1 h 30 min
Bit rate : 5 519 kb/s
Width : 1 920 pixels
Height : 1 080 pixels
Display aspect ratio : 16:9
Frame rate mode : Constant
Frame rate : 23.976 (24000/1001) FPS
Color space : YUV
Chroma subsampling : 4:2:0
Bit depth : 8 bits
Bits/(Pixel*Frame) : 0.111
Stream size : 3.48 GiB (76%)
Title : Shrek [HEVC] [Wanterlude]
Writing library : x265 2.0+54-e5ca9b210223:[Windows][GCC 5.4.0][64 bit] 8bit
Encoding settings : wpp / ctu=64 / min-cu-size=8 / max-tu-size=32 / tu-intra-depth=1 / tu-inter-depth=1 / me=3 / subme=5 / merange=92 / no-rect / no-amp / max-merge=2 / temporal-mvp / no-early-skip / rskip / rdpenalty=0 / no-tskip / no-tskip-fast / strong-intra-smoothing / no-lossless / no-cu-lossless / no-constrained-intra / no-fast-intra / open-gop / no-temporal-layers / interlace=0 / keyint=230 / min-keyint=23 / scenecut=40 / rc-lookahead=60 / lookahead-slices=6 / bframes=10 / bframe-bias=0 / b-adapt=2 / ref=5 / limit-refs=3 / no-limit-modes / weightp / weightb / aq-mode=1 / qg-size=32 / aq-strength=1.00 / cbqpoffs=0 / crqpoffs=0 / rd=3 / psy-rd=2.00 / rdoq-level=0 / psy-rdoq=0.00 / log2-max-poc-lsb=8 / no-rd-refine / signhide / deblock=-5:-5 / sao / no-sao-non-deblock / b-pyramid / cutree / no-intra-refresh / rc=crf / crf=16.0 / qcomp=0.60 / qpmin=0 / qpmax=69 / qpstep=4 / ipratio=1.40 / pbratio=1.30
Default : Yes
Forced : No
Color range : Limited
Color primaries : BT.709
Transfer characteristics : BT.709
Matrix coefficients : BT.709
Audio #1
ID : 2
Format : AC-3
Format/Info : Audio Coding 3
Mode extension : CM (complete main)
Format settings, Endianness : Big
Codec ID : A_AC3
Duration : 1 h 30 min
Bit rate mode : Constant
Bit rate : 640 kb/s
Channel(s) : 6 channels
Channel positions : Front: L C R, Side: L R, LFE
Sampling rate : 48.0 kHz
Frame rate : 31.250 FPS (1536 spf)
Compression mode : Lossy
Stream size : 413 MiB (9%)
Language : Russian
Default : Yes
Forced : No
Audio #2
ID : 3
Format : AC-3
Format/Info : Audio Coding 3
Mode extension : CM (complete main)
Format settings, Endianness : Big
Codec ID : A_AC3
Duration : 1 h 30 min
Bit rate mode : Constant
Bit rate : 320 kb/s
Channel(s) : 2 channels
Channel positions : Front: L R
Sampling rate : 48.0 kHz
Frame rate : 31.250 FPS (1536 spf)
Compression mode : Lossy
Stream size : 206 MiB (4%)
Language : Ukrainian
Default : No
Forced : No
Audio #3
ID : 4
Format : AC-3
Format/Info : Audio Coding 3
Mode extension : CM (complete main)
Format settings, Endianness : Big
Codec ID : A_AC3
Duration : 1 h 30 min
Bit rate mode : Constant
Bit rate : 640 kb/s
Channel(s) : 6 channels
Channel positions : Front: L C R, Side: L R, LFE
Sampling rate : 48.0 kHz
Frame rate : 31.250 FPS (1536 spf)
Compression mode : Lossy
Stream size : 412 MiB (9%)
Language : English
Default : No
Forced : No
Text #1
ID : 5
Format : PGS
Codec ID : S_HDMV/PGS
Codec ID/Info : Picture based subtitle format used on BDs/HD-DVDs
Duration : 1 h 22 min
Bit rate : 41.3 kb/s
Count of elements : 2122
Stream size : 24.3 MiB (1%)
Language : English
Default : No
Forced : No
Text #2
ID : 6
Format : PGS
Codec ID : S_HDMV/PGS
Codec ID/Info : Picture based subtitle format used on BDs/HD-DVDs
Duration : 1 h 29 min
Bit rate : 30.5 kb/s
Count of elements : 1678
Stream size : 19.5 MiB (0%)
Language : Russian
Default : No
Forced : No
Text #3
ID : 7
Format : PGS
Codec ID : S_HDMV/PGS
Codec ID/Info : Picture based subtitle format used on BDs/HD-DVDs
Duration : 1 h 29 min
Bit rate : 38.2 kb/s
Count of elements : 2818
Stream size : 24.3 MiB (1%)
Language : Russian
Default : No
Forced : No
Text #4
ID : 8
Format : PGS
Codec ID : S_HDMV/PGS
Codec ID/Info : Picture based subtitle format used on BDs/HD-DVDs
Duration : 1 h 29 min
Bit rate : 36.2 kb/s
Count of elements : 2190
Stream size : 23.1 MiB (0%)
Language : Ukrainian
Default : No
Forced : No
Menu
00:00:00.000 : en:Chapter 1
00:04:58.798 : en:Chapter 2
00:11:45.121 : en:Chapter 3
00:16:00.793 : en:Chapter 4
00:20:13.378 : en:Chapter 5
00:26:21.454 : en:Chapter 6
00:31:42.859 : en:Chapter 7
00:35:15.279 : en:Chapter 8
00:40:26.006 : en:Chapter 9
00:45:03.158 : en:Chapter 10
00:49:18.246 : en:Chapter 11
00:55:29.701 : en:Chapter 12
01:00:56.277 : en:Chapter 13
01:05:35.348 : en:Chapter 14
01:09:16.986 : en:Chapter 15
01:11:34.707 : en:Chapter 16
01:14:53.447 : en:Chapter 17
01:17:35.817 : en:Chapter 18
01:20:55.140 : en:Chapter 19
01:23:04.354 : en:Chapter 20




   Похожие торренты   Торрент   Размер 
В этой теме нет новых непрочитанных сообщений. Шрэк 2 / Shrek 2 (2004) BDRip 1080p HEVC

45 | 3

4.53 ГБ

В этой теме нет новых непрочитанных сообщений. Шрэк Третий / Shrek the Third (2007) BDRip 1080p HEVC

41 | 0

4.48 ГБ

В этой теме нет новых непрочитанных сообщений. Шрэк навсегда / Shrek Forever After (2010) BDRip 1080p HEVC

20 | 1

4.11 ГБ

В этой теме нет новых непрочитанных сообщений. Шрэк: Квадрология / Shrek: Quadrilogy (2001, 2004, 2007, 2010) BDRip 1080p Rip by Neofilm

2 | 6

17.07 ГБ

В этой теме нет новых непрочитанных сообщений. Шрэк 4-D : Шрек. Призрак Лорда Фаркуада / Shrek 4-D : Shrek. The Ghost of Lord Farquaad (2003) HDRip AVC от SuperMin

814 | 26

354.43 МБ

В этой теме нет новых непрочитанных сообщений. Шрек мороз, зеленый нос / Шрэк: Рождество / Shrek the Halls (2007) BDRip от HQCLUB

22 | 0

549.09 МБ

В этой теме нет новых непрочитанных сообщений. Шрек: Квадрология / Shrek Quadrilogy (2001-2010) BDRip 1080p

266 | 99

17.49 ГБ




Вы не можете начинать темы
Вы не можете отвечать на сообщения
Вы не можете редактировать свои сообщения
Вы не можете удалять свои сообщения
Вы не можете добавлять вложения

Перейти:  
Для Мосгорсуда, Роскомнадзора и рекламодателей: mosgorsud-torrent[собачка]yandex.ru
 Вход
ppkBB3cker v.2 © 2008-2014 @ PPK
[ Time : 0.037s | 15 Queries | GZIP : Off ]

cron