img image001 image001 image001 image001 image001 image001 image001 image001 image001 image001 image001 image001 image001 image001 image001

Planets Sun Sun Sun
Статистика раздачи
Автор: PriZraK | Размер: 4.53 ГБ | Добавлен: 09 окт 2016
Раздают: 39    Качают: 9
Скачать торрент
Скачать торрент
Описание торрента

СообщениеДобавлено: 09 окт 2016 


Информация о фильме
Название: Шрэк 2
Оригинальное название: Shrek 2
Год выхода: 2004
Жанр: Фэнтези, комедия, приключения, семейный, мультфильм, полнометражный
Режиссер: Эндрю Адамсон, Келли Эсбёри, Конрад Вернон
В ролях: Майк Майерс, Эдди Мёрфи, Кэмерон Диаз, Джули Эндрюс, Антонио Бандерас, Джон Клиз, Руперт Эверет, Дженнифер Сoндерс, Арон Уорнер, Келли Эсбёри
О фильме:
Шрэк и Фиона возвращаются после медового месяца и находят письмо от родителей Фионы с приглашением на ужин. Однако те не подозревают, что их дочь тоже стала троллем! Вместе с Осликом счастливая пара отправляется в путешествие, полное неожиданностей, и попадает в круговорот событий, во время которых приобретает множество друзей...

Страна: США, DreamWorks Animation
Продолжительность: 01:32:24
Перевод: Дублированный [Лицензия]
Файл
Кодек: HEVC
Качество: BDRip 1080p
Видео: HEVC, 1920x1080, 23,976 fps, ~5509 kb/s | 8 bits
Аудио #1: AC-3, 48.0 KHz, 6 ch, 640 Kbps | Русский
Аудио #2: AC-3, 48.0 KHz, 6 ch, 640 Kbps | Английский
Аудио #3: AC-3, 48.0 KHz, 2 ch, 192 Kbps | Украинский
Субтитры: English (Blu-ray CEE), Russian (Blu-ray CEE), Ukrainian (Blu-ray CEE)
Семпл
General
Unique ID : 230997820627630388913355044138594945225 (0xADC88FDE2679B783B11D43FE24AD48C9)
Complete name : D:[HEVC]Shrek.2.[HEVC].[Wanterlude].mkv
Format : Matroska
Format version : Version 4 / Version 2
File size : 4.53 GiB
Duration : 1 h 32 min
Overall bit rate : 7 027 kb/s
Movie name : Shrek.2.[HEVC].[Wanterlude]
Encoded date : UTC 2016-09-21 16:35:56
Writing application : mkvmerge v9.4.2 ('So High') 64bit
Writing library : libebml v1.3.4 + libmatroska v1.4.5
Video
ID : 1
Format : HEVC
Format/Info : High Efficiency Video Coding
Format profile : Main@L4@Main
Codec ID : V_MPEGH/ISO/HEVC
Duration : 1 h 32 min
Bit rate : 5 509 kb/s
Width : 1 920 pixels
Height : 1 080 pixels
Display aspect ratio : 16:9
Frame rate mode : Constant
Frame rate : 23.976 (24000/1001) FPS
Color space : YUV
Chroma subsampling : 4:2:0
Bit depth : 8 bits
Bits/(Pixel*Frame) : 0.111
Stream size : 3.55 GiB (78%)
Title : Shrek.2.[HEVC].[Wanterlude]
Writing library : x265 2.0+54-e5ca9b210223:[Windows][GCC 5.4.0][64 bit] 8bit
Encoding settings : wpp / ctu=64 / min-cu-size=8 / max-tu-size=32 / tu-intra-depth=1 / tu-inter-depth=1 / me=3 / subme=5 / merange=92 / no-rect / no-amp / max-merge=2 / temporal-mvp / no-early-skip / rskip / rdpenalty=0 / no-tskip / no-tskip-fast / strong-intra-smoothing / no-lossless / no-cu-lossless / no-constrained-intra / no-fast-intra / open-gop / no-temporal-layers / interlace=0 / keyint=230 / min-keyint=23 / scenecut=40 / rc-lookahead=60 / lookahead-slices=6 / bframes=10 / bframe-bias=0 / b-adapt=2 / ref=5 / limit-refs=3 / no-limit-modes / weightp / weightb / aq-mode=1 / qg-size=32 / aq-strength=1.00 / cbqpoffs=0 / crqpoffs=0 / rd=3 / psy-rd=2.00 / rdoq-level=0 / psy-rdoq=0.00 / log2-max-poc-lsb=8 / no-rd-refine / signhide / deblock=-5:-5 / sao / no-sao-non-deblock / b-pyramid / cutree / no-intra-refresh / rc=crf / crf=16.0 / qcomp=0.60 / qpmin=0 / qpmax=69 / qpstep=4 / ipratio=1.40 / pbratio=1.30
Default : Yes
Forced : No
Color range : Limited
Color primaries : BT.709
Transfer characteristics : BT.709
Matrix coefficients : BT.709
Audio #1
ID : 2
Format : AC-3
Format/Info : Audio Coding 3
Mode extension : CM (complete main)
Format settings, Endianness : Big
Codec ID : A_AC3
Duration : 1 h 32 min
Bit rate mode : Constant
Bit rate : 640 kb/s
Channel(s) : 6 channels
Channel positions : Front: L C R, Side: L R, LFE
Sampling rate : 48.0 kHz
Frame rate : 31.250 FPS (1536 spf)
Compression mode : Lossy
Stream size : 423 MiB (9%)
Language : Russian
Default : Yes
Forced : No
Audio #2
ID : 3
Format : AC-3
Format/Info : Audio Coding 3
Mode extension : CM (complete main)
Format settings, Endianness : Big
Codec ID : A_AC3
Duration : 1 h 32 min
Bit rate mode : Constant
Bit rate : 192 kb/s
Channel(s) : 2 channels
Channel positions : Front: L R
Sampling rate : 48.0 kHz
Frame rate : 31.250 FPS (1536 spf)
Compression mode : Lossy
Stream size : 127 MiB (3%)
Language : Ukrainian
Default : No
Forced : No
Audio #3
ID : 4
Format : AC-3
Format/Info : Audio Coding 3
Mode extension : CM (complete main)
Format settings, Endianness : Big
Codec ID : A_AC3
Duration : 1 h 32 min
Bit rate mode : Constant
Bit rate : 640 kb/s
Channel(s) : 6 channels
Channel positions : Front: L C R, Side: L R, LFE
Sampling rate : 48.0 kHz
Frame rate : 31.250 FPS (1536 spf)
Compression mode : Lossy
Stream size : 423 MiB (9%)
Language : English
Default : No
Forced : No
Text #1
ID : 5
Format : PGS
Muxing mode : zlib
Codec ID : S_HDMV/PGS
Codec ID/Info : Picture based subtitle format used on BDs/HD-DVDs
Duration : 1 h 24 min
Bit rate : 15.1 kb/s
Count of elements : 2075
Stream size : 9.11 MiB (0%)
Language : English
Default : No
Forced : No
Text #2
ID : 6
Format : PGS
Muxing mode : zlib
Codec ID : S_HDMV/PGS
Codec ID/Info : Picture based subtitle format used on BDs/HD-DVDs
Duration : 1 h 31 min
Bit rate : 15.4 kb/s
Count of elements : 2273
Stream size : 10.1 MiB (0%)
Language : Russian
Default : No
Forced : No
Text #3
ID : 7
Format : PGS
Muxing mode : zlib
Codec ID : S_HDMV/PGS
Codec ID/Info : Picture based subtitle format used on BDs/HD-DVDs
Duration : 1 h 31 min
Bit rate : 14.8 kb/s
Count of elements : 2272
Stream size : 9.68 MiB (0%)
Language : Ukrainian
Default : No
Forced : No
Menu
00:00:00.000 : en:Chapter 1
00:02:32.778 : en:Chapter 2
00:08:41.980 : en:Chapter 3
00:11:09.501 : en:Chapter 4
00:18:54.425 : en:Chapter 5
00:27:13.507 : en:Chapter 6
00:30:23.613 : en:Chapter 7
00:32:38.498 : en:Chapter 8
00:40:46.277 : en:Chapter 9
00:48:07.843 : en:Chapter 10
00:52:30.606 : en:Chapter 11
00:56:22.421 : en:Chapter 12
01:00:45.308 : en:Chapter 13
01:03:37.731 : en:Chapter 14
01:04:58.978 : en:Chapter 15
01:07:23.498 : en:Chapter 16
01:10:50.746 : en:Chapter 17
01:14:20.372 : en:Chapter 18
01:18:42.259 : en:Chapter 19
01:22:09.174 : en:Chapter 20




   Похожие торренты   Торрент   Размер 
В этой теме нет новых непрочитанных сообщений. Шрэк / Shrek (2001) BDRip 1080p HEVC

48 | 9

4.57 ГБ

В этой теме нет новых непрочитанных сообщений. Шрэк Третий / Shrek the Third (2007) BDRip 1080p HEVC

43 | 10

4.48 ГБ

В этой теме нет новых непрочитанных сообщений. Шрэк навсегда / Shrek Forever After (2010) BDRip 1080p HEVC

24 | 9

4.11 ГБ

В этой теме нет новых непрочитанных сообщений. Шрэк: Квадрология / Shrek: Quadrilogy (2001, 2004, 2007, 2010) BDRip 1080p Rip by Neofilm

2 | 6

17.07 ГБ

В этой теме нет новых непрочитанных сообщений. Шрэк 4-D : Шрек. Призрак Лорда Фаркуада / Shrek 4-D : Shrek. The Ghost of Lord Farquaad (2003) HDRip AVC от SuperMin

814 | 26

354.43 МБ

В этой теме нет новых непрочитанных сообщений. Шрек 2 3D / Shrek 2 3D (2004) BDRip 1080p | 3D

13 | 5

6.01 ГБ

В этой теме нет новых непрочитанных сообщений. Шрек 2 / Shrek 2 (2004) BDRip 1080p от Youtracker | 3D-Video

178 | 8

6.46 ГБ




Вы не можете начинать темы
Вы не можете отвечать на сообщения
Вы не можете редактировать свои сообщения
Вы не можете удалять свои сообщения
Вы не можете добавлять вложения

Перейти:  
Для Мосгорсуда, Роскомнадзора и рекламодателей: mosgorsud-torrent[собачка]yandex.ru
 Вход
ppkBB3cker v.2 © 2008-2014 @ PPK
[ Time : 0.020s | 14 Queries | GZIP : Off ]

Торрент трекер RUTOR.IN, Не можете зайти на rutor.org? Какой новый адрес рутор? Какое зеркало рутор? Не работает rutor.org и зеркала? Тогда наш торрент специально для вас. Rutor.in неофициальное зеркало rutor. В случае если у Вас заблокирован rutor или вдруг Вы не можете на него зайти, то Вы без труда сможете скачать бесплатно и без рекламы последние новинки кино, игр, сериалов и прочего у нас, на Rutor.in. Не нужно использовать прокси, чтобы зайти на рутор, достаточно воспользоваться нашим ресурсом. Все новые фильмы, игры, сериалы, книги и музыка за 2013 и 2014 годы через торрент бесплатно. Скачивайте фильмы в хорошем качестве, игры для пк, xbox, playstation без регистрации. У нас вы найдете новые Зарубежные сериалы и Русские сериалы 2013, 2014, 2015 годов. Оставайтесь с нами, качайте любимые фильмы, игры, сериалы, книги и музыку.