img image001 image001 image001 image001 image001 image001 image001 image001 image001 image001 image001 image001 image001 image001 image001

Planets Sun Sun Sun
Статистика раздачи
Автор: PriZraK | Размер: 4.11 ГБ | Добавлен: 09 окт 2016
Раздают: 32    Качают: 11
Скачать торрент
Скачать торрент
Описание торрента

СообщениеДобавлено: 09 окт 2016 


Информация о фильме
Название: Шрэк навсегда
Оригинальное название: Shrek Forever After
Год выхода: 2010
Жанр: Мультфильм, фэнтези, комедия, приключения, семейный
Режиссер: Майк Митчелл
В ролях: Майк Майерс, Эдди Мёрфи, Кэмерон Диаз, Антонио Бандерас, Джули Эндрюс, Джон Хэмм, Джон Клиз, Крэйг Робинсон, Уолт Дорн, Джейн Линч
О фильме:
Чем бы еще заняться огру, который уже сразился со злым драконом, спас прекрасную принцессу и уберег от беды королевство родственников по линии жены? Что ж, если вы Шрэк, то, сами того не заметив, вы вдруг сядете дома и станете наслаждаться покоем в кругу семьи. Вместо того чтобы как раньше пугать деревенских жителей, теперь Шрэк, хоть и с неохотой, но соглашается оставлять автографы на их вилах. А куда же подевался знаменитый рык этого огра?
Под грузом воспоминаний о днях, когда он чувствовал себя «настоящим огром», Шрэк поддается на уговоры сладкоголосого Румпельштильцхена и заключает с ним договор. Сразу после этого Шрэк оказывается в альтернативной реальности Тридевятого королевства, где все поставлено с ног на голову: на огров здесь охотятся, Румпельштильцхен восседает на троне, а Шрэк и Фиона даже не знакомы. И теперь только сам Шрэк может исправить все, что он натворил, чтобы спасти друзей, восстановить привычный ему порядок вещей и вернуть себе свою единственную Истинную Любовь.

Страна: США
Продолжительность: 01:33:10
Перевод: Дублированный [Лицензия]
Файл
Кодек: HEVC
Качество: BDRip 1080p
Видео: HEVC, 1920x816, 23,976 fps, ~4354 kb/s | 8 bits
Аудио #1: AC-3, 48.0 KHz, 6 ch, 640 Kbps | Русский
Аудио #2: AC-3, 48.0 KHz, 6 ch, 640 Kbps | Английский
Аудио #3: AC-3, 48.0 KHz, 6 ch, 640 Kbps | Украинский
Субтитры: English (Blu-ray), Russian (Blu-ray), Ukrainian (Blu-ray)
Семпл
General
Unique ID : 202411295228647675228011943098127980453 (0x9846FF594BE4830B95434E58955F97A5)
Complete name : D:[HEVC]Shrek.Forever.After.[HEVC].[Wanterlude].mkv
Format : Matroska
Format version : Version 4 / Version 2
File size : 4.11 GiB
Duration : 1 h 33 min
Overall bit rate : 6 318 kb/s
Movie name : Shrek Forever After [HEVC] [Wanterlude]
Encoded date : UTC 2016-09-23 22:35:34
Writing application : mkvmerge v9.4.2 ('So High') 64bit
Writing library : libebml v1.3.4 + libmatroska v1.4.5
Video
ID : 1
Format : HEVC
Format/Info : High Efficiency Video Coding
Format profile : Main@L4@Main
Codec ID : V_MPEGH/ISO/HEVC
Duration : 1 h 33 min
Bit rate : 4 354 kb/s
Width : 1 920 pixels
Height : 816 pixels
Display aspect ratio : 2.35:1
Frame rate mode : Constant
Frame rate : 23.976 (24000/1001) FPS
Color space : YUV
Chroma subsampling : 4:2:0
Bit depth : 8 bits
Bits/(Pixel*Frame) : 0.116
Stream size : 2.83 GiB (69%)
Title : Shrek Forever After [HEVC] [Wanterlude]
Writing library : x265 2.0+54-e5ca9b210223:[Windows][GCC 5.4.0][64 bit] 8bit
Encoding settings : wpp / ctu=64 / min-cu-size=8 / max-tu-size=32 / tu-intra-depth=1 / tu-inter-depth=1 / me=3 / subme=5 / merange=92 / no-rect / no-amp / max-merge=2 / temporal-mvp / no-early-skip / rskip / rdpenalty=0 / no-tskip / no-tskip-fast / strong-intra-smoothing / no-lossless / no-cu-lossless / no-constrained-intra / no-fast-intra / open-gop / no-temporal-layers / interlace=0 / keyint=230 / min-keyint=23 / scenecut=40 / rc-lookahead=60 / lookahead-slices=5 / bframes=10 / bframe-bias=0 / b-adapt=2 / ref=5 / limit-refs=3 / no-limit-modes / weightp / weightb / aq-mode=1 / qg-size=32 / aq-strength=1.00 / cbqpoffs=0 / crqpoffs=0 / rd=3 / psy-rd=2.00 / rdoq-level=0 / psy-rdoq=0.00 / log2-max-poc-lsb=8 / no-rd-refine / signhide / deblock=-4:-4 / sao / no-sao-non-deblock / b-pyramid / cutree / no-intra-refresh / rc=crf / crf=16.0 / qcomp=0.60 / qpmin=0 / qpmax=69 / qpstep=4 / ipratio=1.40 / pbratio=1.30
Default : Yes
Forced : No
Color range : Limited
Color primaries : BT.709
Transfer characteristics : BT.709
Matrix coefficients : BT.709
Audio #1
ID : 2
Format : AC-3
Format/Info : Audio Coding 3
Mode extension : CM (complete main)
Format settings, Endianness : Big
Codec ID : A_AC3
Duration : 1 h 33 min
Bit rate mode : Constant
Bit rate : 640 kb/s
Channel(s) : 6 channels
Channel positions : Front: L C R, Side: L R, LFE
Sampling rate : 48.0 kHz
Frame rate : 31.250 FPS (1536 spf)
Compression mode : Lossy
Stream size : 427 MiB (10%)
Language : Russian
Default : Yes
Forced : No
Audio #2
ID : 3
Format : AC-3
Format/Info : Audio Coding 3
Mode extension : CM (complete main)
Format settings, Endianness : Big
Codec ID : A_AC3
Duration : 1 h 33 min
Bit rate mode : Constant
Bit rate : 640 kb/s
Channel(s) : 6 channels
Channel positions : Front: L C R, Side: L R, LFE
Sampling rate : 48.0 kHz
Frame rate : 31.250 FPS (1536 spf)
Compression mode : Lossy
Stream size : 427 MiB (10%)
Language : Ukrainian
Default : No
Forced : No
Audio #3
ID : 4
Format : AC-3
Format/Info : Audio Coding 3
Mode extension : CM (complete main)
Format settings, Endianness : Big
Codec ID : A_AC3
Duration : 1 h 33 min
Bit rate mode : Constant
Bit rate : 640 kb/s
Channel(s) : 6 channels
Channel positions : Front: L C R, Side: L R, LFE
Sampling rate : 48.0 kHz
Frame rate : 31.250 FPS (1536 spf)
Compression mode : Lossy
Stream size : 427 MiB (10%)
Language : English
Default : No
Forced : No
Text #1
ID : 5
Format : PGS
Muxing mode : zlib
Codec ID : S_HDMV/PGS
Codec ID/Info : Picture based subtitle format used on BDs/HD-DVDs
Duration : 1 h 32 min
Bit rate : 13.5 kb/s
Count of elements : 2067
Stream size : 8.92 MiB (0%)
Language : English
Default : No
Forced : No
Text #2
ID : 6
Format : PGS
Muxing mode : zlib
Codec ID : S_HDMV/PGS
Codec ID/Info : Picture based subtitle format used on BDs/HD-DVDs
Duration : 1 h 32 min
Bit rate : 14.4 kb/s
Count of elements : 2098
Stream size : 9.55 MiB (0%)
Language : Russian
Default : No
Forced : No
Text #3
ID : 7
Format : PGS
Muxing mode : zlib
Codec ID : S_HDMV/PGS
Codec ID/Info : Picture based subtitle format used on BDs/HD-DVDs
Duration : 1 h 32 min
Bit rate : 13.7 kb/s
Count of elements : 2088
Stream size : 9.03 MiB (0%)
Language : Ukrainian
Default : No
Forced : No
Menu
00:00:00.000 : en:Chapter 1
00:04:47.786 : en:Chapter 2
00:08:39.936 : en:Chapter 3
00:14:51.724 : en:Chapter 4
00:19:51.190 : en:Chapter 5
00:24:43.315 : en:Chapter 6
00:33:22.333 : en:Chapter 7
00:41:11.469 : en:Chapter 8
00:44:51.271 : en:Chapter 9
00:48:32.451 : en:Chapter 10
00:51:31.630 : en:Chapter 11
00:53:02.387 : en:Chapter 12
00:58:25.960 : en:Chapter 13
01:03:13.748 : en:Chapter 14
01:05:48.861 : en:Chapter 15
01:12:34.475 : en:Chapter 16
01:20:00.420 : en:Chapter 17
01:23:13.822 : en:Chapter 18





   Похожие торренты   Торрент   Размер 
В этой теме нет новых непрочитанных сообщений. Шрэк 2 / Shrek 2 (2004) BDRip 1080p HEVC

35 | 12

4.53 ГБ

В этой теме нет новых непрочитанных сообщений. Шрэк / Shrek (2001) BDRip 1080p HEVC

48 | 9

4.57 ГБ

В этой теме нет новых непрочитанных сообщений. Шрэк Третий / Shrek the Third (2007) BDRip 1080p HEVC

43 | 9

4.48 ГБ

В этой теме нет новых непрочитанных сообщений. Шрек навсегда / Shrek Forever After (2010) BDRip 1080p

57 | 12

4.66 ГБ

В этой теме нет новых непрочитанных сообщений. Шрек навсегда / Shrek Forever After (2010) BD-Remux 1080p

4 | 4

19.11 ГБ

В этой теме нет новых непрочитанных сообщений. Шрек навсегда / Shrek Forever After (2010) BDRip от HQCLUB

154 | 24

2.04 ГБ

В этой теме нет новых непрочитанных сообщений. Шрек навсегда / Shrek Forever After (2010) BDRip от HELLYWOOD

91 | 18

2.03 ГБ




Вы не можете начинать темы
Вы не можете отвечать на сообщения
Вы не можете редактировать свои сообщения
Вы не можете удалять свои сообщения
Вы не можете добавлять вложения

Перейти:  
Для Мосгорсуда, Роскомнадзора и рекламодателей: mosgorsud-torrent[собачка]yandex.ru
 Вход
ppkBB3cker v.2 © 2008-2014 @ PPK
[ Time : 0.043s | 15 Queries | GZIP : Off ]

Торрент трекер RUTOR.IN, Не можете зайти на rutor.org? Какой новый адрес рутор? Какое зеркало рутор? Не работает rutor.org и зеркала? Тогда наш торрент специально для вас. Rutor.in неофициальное зеркало rutor. В случае если у Вас заблокирован rutor или вдруг Вы не можете на него зайти, то Вы без труда сможете скачать бесплатно и без рекламы последние новинки кино, игр, сериалов и прочего у нас, на Rutor.in. Не нужно использовать прокси, чтобы зайти на рутор, достаточно воспользоваться нашим ресурсом. Все новые фильмы, игры, сериалы, книги и музыка за 2013 и 2014 годы через торрент бесплатно. Скачивайте фильмы в хорошем качестве, игры для пк, xbox, playstation без регистрации. У нас вы найдете новые Зарубежные сериалы и Русские сериалы 2013, 2014, 2015 годов. Оставайтесь с нами, качайте любимые фильмы, игры, сериалы, книги и музыку.
cron