img image001 image001 image001 image001 image001 image001 image001 image001 image001 image001 image001 image001 image001 image001 image001

Planets Sun Sun Sun
Статистика раздачи
Автор: PriZraK | Размер: 4.48 ГБ | Добавлен: 09 окт 2016
Раздают: 41    Качают: 9
Скачать торрент
Скачать торрент
Описание торрента

СообщениеДобавлено: 09 окт 2016 


Информация о фильме
Название: Шрэк Третий
Оригинальное название: Shrek the Third
Год выхода: 2007
Жанр: Фэнтези, комедия, приключения, семейный, мультфильм, полнометражный
Режиссер: Крис Миллер
В ролях: Майк Майерс, Эдди Мерфи, Кэмерон Диаз, Антонио Бандерас, Джули Эндрюс, Джон Клиз, Руперт Эверетт, Эрик Айдл, Джастин Тимберлэйк, Susan Blakeslee, Коуди Камерон, Ларри Кинг, Кристофер Найтс, Джон Красински, Йен МакШейн, Шери Отери, Режис Филбин, Эми Пехлер, Сет Роджен, Майя Рудольф, Эми Седарис
О фильме:
Королем может быть не каждый - особенно если вы не очень симпатичный великан. Когда Шрэк женился на принцессе Фионе, он меньше всего на свете хотел управлять Далекой-Далекой страной. Такой он невластолюбивый. Однако отец Фионы, король Гарольд, внезапно умирает, и корону должен унаследовать именно Шрэк. Как-никак, он все-таки муж наследницы.
Однако Шрэк наотрез отказывается от бремени власти, и решает отправиться вместе со своими старыми друзьями Ослом и Котом в сапогах на поиски кандидата на трон. Если Шрэк не найдет себе подходящей замены, ему придется управлять сказочной страной самому... и это надолго. Похоже, что король Артур - тот, кто им нужен.
Однако в отсутствие великана его старый враг принц по имени Чарминг замышляет всякие пакости, для чего и возвращается в сказочную страну. Шрэку придется очень постараться, чтобы спасти страну от происков врагов и от возможного переворота.

Страна: США
Продолжительность: 01:32:44
Перевод: Дублированный [Лицензия]
Файл
Кодек: HEVC
Качество: BDRip 1080p
Видео: HEVC, 1920x1080, 23,976 fps, ~4928 kb/s | 8 bits
Аудио #1: AC-3, 48.0 KHz, 6 ch, 640 Kbps | Русский
Аудио #2: AC-3, 48.0 KHz, 6 ch, 640 Kbps | Английский
Аудио #3: AC-3, 48.0 KHz, 6 ch, 640 Kbps | Украинский
Субтитры: English (Blu-ray CEE), Russian (Blu-ray CEE), Ukrainian (Blu-ray CEE)
Семпл
General
Unique ID : 246424171437244668267691308234245509415 (0xB96391AF2C5459D18842CABBDF4D9127)
Complete name : D:[HEVC]Shrek.The.Third.[HEVC].[Wanterlude].mkv
Format : Matroska
Format version : Version 4 / Version 2
File size : 4.48 GiB
Duration : 1 h 32 min
Overall bit rate : 6 904 kb/s
Movie name : Shrek.The.Third.[HEVC].[Wanterlude]
Encoded date : UTC 2016-09-21 17:01:18
Writing application : mkvmerge v9.4.2 ('So High') 64bit
Writing library : libebml v1.3.4 + libmatroska v1.4.5
Video
ID : 1
Format : HEVC
Format/Info : High Efficiency Video Coding
Format profile : Main@L4@Main
Codec ID : V_MPEGH/ISO/HEVC
Duration : 1 h 32 min
Bit rate : 4 928 kb/s
Width : 1 920 pixels
Height : 1 080 pixels
Display aspect ratio : 16:9
Frame rate mode : Constant
Frame rate : 23.976 (24000/1001) FPS
Color space : YUV
Chroma subsampling : 4:2:0
Bit depth : 8 bits
Bits/(Pixel*Frame) : 0.099
Stream size : 3.19 GiB (71%)
Title : Shrek.The.Third.[HEVC].[Wanterlude]
Writing library : x265 2.0+54-e5ca9b210223:[Windows][GCC 5.4.0][64 bit] 8bit
Encoding settings : wpp / ctu=64 / min-cu-size=8 / max-tu-size=32 / tu-intra-depth=1 / tu-inter-depth=1 / me=3 / subme=5 / merange=92 / no-rect / no-amp / max-merge=2 / temporal-mvp / no-early-skip / rskip / rdpenalty=0 / no-tskip / no-tskip-fast / strong-intra-smoothing / no-lossless / no-cu-lossless / no-constrained-intra / no-fast-intra / open-gop / no-temporal-layers / interlace=0 / keyint=230 / min-keyint=23 / scenecut=40 / rc-lookahead=60 / lookahead-slices=6 / bframes=10 / bframe-bias=0 / b-adapt=2 / ref=5 / limit-refs=3 / no-limit-modes / weightp / weightb / aq-mode=1 / qg-size=32 / aq-strength=1.00 / cbqpoffs=0 / crqpoffs=0 / rd=3 / psy-rd=2.00 / rdoq-level=0 / psy-rdoq=0.00 / log2-max-poc-lsb=8 / no-rd-refine / signhide / deblock=-5:-5 / sao / no-sao-non-deblock / b-pyramid / cutree / no-intra-refresh / rc=crf / crf=16.0 / qcomp=0.60 / qpmin=0 / qpmax=69 / qpstep=4 / ipratio=1.40 / pbratio=1.30
Default : Yes
Forced : No
Color range : Limited
Color primaries : BT.709
Transfer characteristics : BT.709
Matrix coefficients : BT.709
Audio #1
ID : 2
Format : AC-3
Format/Info : Audio Coding 3
Mode extension : CM (complete main)
Format settings, Endianness : Big
Codec ID : A_AC3
Duration : 1 h 32 min
Bit rate mode : Constant
Bit rate : 640 kb/s
Channel(s) : 6 channels
Channel positions : Front: L C R, Side: L R, LFE
Sampling rate : 48.0 kHz
Frame rate : 31.250 FPS (1536 spf)
Compression mode : Lossy
Stream size : 425 MiB (9%)
Language : Russian
Default : Yes
Forced : No
Audio #2
ID : 3
Format : AC-3
Format/Info : Audio Coding 3
Mode extension : CM (complete main)
Format settings, Endianness : Big
Codec ID : A_AC3
Duration : 1 h 32 min
Bit rate mode : Constant
Bit rate : 640 kb/s
Channel(s) : 6 channels
Channel positions : Front: L C R, Side: L R, LFE
Sampling rate : 48.0 kHz
Frame rate : 31.250 FPS (1536 spf)
Compression mode : Lossy
Stream size : 425 MiB (9%)
Language : Ukrainian
Default : No
Forced : No
Audio #3
ID : 4
Format : AC-3
Format/Info : Audio Coding 3
Mode extension : CM (complete main)
Format settings, Endianness : Big
Codec ID : A_AC3
Duration : 1 h 32 min
Bit rate mode : Constant
Bit rate : 640 kb/s
Channel(s) : 6 channels
Channel positions : Front: L C R, Side: L R, LFE
Sampling rate : 48.0 kHz
Frame rate : 31.250 FPS (1536 spf)
Compression mode : Lossy
Stream size : 425 MiB (9%)
Language : English
Default : No
Forced : No
Text #1
ID : 5
Format : PGS
Muxing mode : zlib
Codec ID : S_HDMV/PGS
Codec ID/Info : Picture based subtitle format used on BDs/HD-DVDs
Duration : 1 h 24 min
Bit rate : 11.8 kb/s
Count of elements : 2256
Stream size : 7.10 MiB (0%)
Language : English
Default : No
Forced : No
Text #2
ID : 6
Format : PGS
Muxing mode : zlib
Codec ID : S_HDMV/PGS
Codec ID/Info : Picture based subtitle format used on BDs/HD-DVDs
Duration : 1 h 21 min
Bit rate : 20.4 kb/s
Count of elements : 4565
Stream size : 11.9 MiB (0%)
Language : English
Default : No
Forced : No
Text #3
ID : 7
Format : PGS
Muxing mode : zlib
Codec ID : S_HDMV/PGS
Codec ID/Info : Picture based subtitle format used on BDs/HD-DVDs
Duration : 1 h 24 min
Bit rate : 6 434 b/s
Count of elements : 2182
Stream size : 3.88 MiB (0%)
Language : English
Default : No
Forced : No
Text #4
ID : 8
Format : PGS
Muxing mode : zlib
Codec ID : S_HDMV/PGS
Codec ID/Info : Picture based subtitle format used on BDs/HD-DVDs
Duration : 1 h 31 min
Bit rate : 9 613 b/s
Count of elements : 2166
Stream size : 6.31 MiB (0%)
Language : Russian
Default : No
Forced : No
Text #5
ID : 9
Format : PGS
Muxing mode : zlib
Codec ID : S_HDMV/PGS
Codec ID/Info : Picture based subtitle format used on BDs/HD-DVDs
Duration : 1 h 31 min
Bit rate : 9 344 b/s
Count of elements : 2142
Stream size : 6.14 MiB (0%)
Language : Ukrainian
Default : No
Forced : No
Menu
00:00:00.000 : en:Chapter 1
00:03:23.912 : en:Chapter 2
00:09:35.032 : en:Chapter 3
00:13:51.372 : en:Chapter 4
00:17:31.340 : en:Chapter 5
00:25:15.889 : en:Chapter 6
00:32:16.100 : en:Chapter 7
00:38:35.730 : en:Chapter 8
00:41:17.016 : en:Chapter 9
00:49:15.577 : en:Chapter 10
00:51:55.237 : en:Chapter 11
00:56:51.157 : en:Chapter 12
00:59:24.310 : en:Chapter 13
01:03:30.264 : en:Chapter 14
01:07:08.274 : en:Chapter 15
01:10:31.185 : en:Chapter 16
01:19:44.279 : en:Chapter 17
01:22:24.773 : en:Chapter 18




   Похожие торренты   Торрент   Размер 
В этой теме нет новых непрочитанных сообщений. Шрэк / Shrek (2001) BDRip 1080p HEVC

107 | 5

4.57 ГБ

В этой теме нет новых непрочитанных сообщений. Шрэк 2 / Shrek 2 (2004) BDRip 1080p HEVC

70 | 5

4.53 ГБ

В этой теме нет новых непрочитанных сообщений. Шрэк навсегда / Shrek Forever After (2010) BDRip 1080p HEVC

21 | 0

4.11 ГБ

В этой теме нет новых непрочитанных сообщений. Шрэк: Квадрология / Shrek: Quadrilogy (2001, 2004, 2007, 2010) BDRip 1080p Rip by Neofilm

2 | 6

17.07 ГБ

В этой теме нет новых непрочитанных сообщений. Шрек Третий / Shrek the Third (2007) BDrip 1080p | 3D-Video

15 | 7

5.8 ГБ

В этой теме нет новых непрочитанных сообщений. Шрек мороз, зеленый нос / Шрэк: Рождество / Shrek the Halls (2007) BDRip от HQCLUB

20 | 1

549.09 МБ

В этой теме нет новых непрочитанных сообщений. Шрек Третий / Shrek the Third (2007) BDRip 1080p от Youtracker | 3D-Video

55 | 9

6 ГБ




Вы не можете начинать темы
Вы не можете отвечать на сообщения
Вы не можете редактировать свои сообщения
Вы не можете удалять свои сообщения
Вы не можете добавлять вложения

Перейти:  
Для Мосгорсуда, Роскомнадзора и рекламодателей: mosgorsud-torrent[собачка]yandex.ru
 Вход
ppkBB3cker v.2 © 2008-2014 @ PPK
[ Time : 0.052s | 15 Queries | GZIP : Off ]

Торрент трекер RUTOR.IN, Не можете зайти на rutor.org? Какой новый адрес рутор? Какое зеркало рутор? Не работает rutor.org и зеркала? Тогда наш торрент специально для вас. Rutor.in неофициальное зеркало rutor. В случае если у Вас заблокирован rutor или вдруг Вы не можете на него зайти, то Вы без труда сможете скачать бесплатно и без рекламы последние новинки кино, игр, сериалов и прочего у нас, на Rutor.in. Не нужно использовать прокси, чтобы зайти на рутор, достаточно воспользоваться нашим ресурсом. Все новые фильмы, игры, сериалы, книги и музыка за 2013 и 2014 годы через торрент бесплатно. Скачивайте фильмы в хорошем качестве, игры для пк, xbox, playstation без регистрации. У нас вы найдете новые Зарубежные сериалы и Русские сериалы 2013, 2014, 2015 годов. Оставайтесь с нами, качайте любимые фильмы, игры, сериалы, книги и музыку.
cron