img image001 image001 image001 image001 image001 image001 image001 image001 image001 image001 image001 image001 image001 image001 image001

Planets Sun Sun Sun
Статистика раздачи
Автор: Nickolas3434 | Размер: 276.84 МБ | Добавлен: 16 окт 2016
Раздают: 315    Качают: 8
Скачать торрент
Скачать торрент
Описание торрента

СообщениеДобавлено: 16 окт 2016 

Информация о фильме
Оригинальное название: Маша и Медведь: Game Over
Год выхода: 2016
Страна: Россия, Студия "Анимаккорд"
Жанр: Мультсериал, сказка, детский, семейный
Продолжительность: 00:07:26
Язык: русский
Режиссер: Георгий Орлов
Режиссёр озвучивания: Алина Кукушкина
Роли озвучивали:
Маша - Варвара Саранцева
Медведь - Борис Кутневич
Заяц / Панда - Марк Кутневич
Медвежата - Катя Кутневич
О фильме:
Медведь перестал выходить из дома, заниматься хозяйством и сажать свои любимые овощи! Маша и остальные лесные жители не на шутку обеспокоены и хотят помочь Медведю! Получится ли вернуть его к реальной жизни, или все - Game over?!




Файл
Формат: MKV
Качество: WEB-DL 1080p
Видео: MPEG4-AVC, High@L4, 1920x1080 (16:9), ~ 4 904 Kbps, 25.000 fps
Звук: 48.0 KHz, AC3 2.0, 192 Kbps
Субтитры: нет
59. Game Over. WEB-DL.1080p.-merci-.mkv
Формат : Matroska
Версия формата : Version 2
Размер файла : 277 Мбайт
Продолжительность : 7 м. 26 с.
Общий поток : 5200 Кбит/сек
Название фильма : Маша и Медведь (WEB-DL) / 2016 / -merci-
Дата кодирования : UTC 2016-10-15 06:01:52
Программа кодирования : mkvmerge v5.8.0 ('No Sleep / Pillow') built on Sep 2 2012 15:37:04
Библиотека кодирования : libebml v1.2.3 + libmatroska v1.3.0
Видео
Идентификатор : 1
Формат : AVC
Формат/Информация : Advanced Video Codec
Профиль формата : High@L4
Параметр CABAC формата : Да
Параметр ReFrames формата : 2 кадра
Идентификатор кодека : V_MPEG4/ISO/AVC
Продолжительность : 7 м. 26 с.
Битрейт : 4904 Кбит/сек
Ширина : 1920 пикселей
Высота : 1080 пикселей
Соотношение сторон : 16:9
Режим частоты кадров : Постоянный
Частота кадров : 25,000 кадров/сек
Цветовое пространство : YUV
Субдискретизация насыщенности : 4:2:0
Битовая глубина : 8 бит
Тип развёртки : Прогрессивная
Бит/(Пиксели*Кадры) : 0.095
Размер потока : 261 Мбайт (94%)
Заголовок : 59. Game Over. WEB-DL.1080p.x264.-merci-
Язык : Russian
Default : Да
Forced : Нет
Цветовой диапазон : Limited
Основные цвета : BT.709
Характеристики трансфера : BT.709
Коэффициенты матрицы : BT.709
Аудио
Идентификатор : 2
Формат : AC-3
Формат/Информация : Audio Coding 3
Расширение режима : CM (complete main)
Параметр Endianness формата : Big
Идентификатор кодека : A_AC3
Продолжительность : 7 м. 26 с.
Вид битрейта : Постоянный
Битрейт : 192 Кбит/сек
Каналы : 2 канала
Расположение каналов : Front: L R
Частота : 48,0 КГц
Частота кадров : 31,250 кадров/сек (1536 spf)
Метод сжатия : С потерями
Размер потока : 10,2 Мбайт (4%)
Заголовок : rus
Язык : Russian
Default : Да
Forced : Нет


Релиз от:
Автор релиза:



   Похожие торренты   Торрент   Размер 
В этой теме нет новых непрочитанных сообщений. Маша и медведь: Game Over [59] (2016) WEB-DLRip-AVC от ExKinoRay

54 | 1

117.89 МБ

В этой теме нет новых непрочитанных сообщений. Маша и медведь: Game Over [59] (2016) WEB-DL 720p от ExKinoRay

221 | 5

223.29 МБ

В этой теме нет новых непрочитанных сообщений. Маша и медведь: Game Over [59] (2016) WEB-DL 1080p от GeneralFilm

168 | 1

206.04 МБ

В этой теме нет новых непрочитанных сообщений. Маша и медведь: На привале [57] (2016) WEB-DL 1080p от ExKinoRay

482 | 4

276.3 МБ

В этой теме нет новых непрочитанных сообщений. Маша и медведь: К вашим услугам! [60] (2016) WEB-DL 1080p от ExKinoRay

122 | 2

295.27 МБ

В этой теме нет новых непрочитанных сообщений. Маша и медведь: Game Over [59] (2016) WEB-DL 720p от GeneralFilm

189 | 3

115.86 МБ

В этой теме нет новых непрочитанных сообщений. Маша и медведь: Game Over [59] (2016) (2016) WEB-DLRip от GeneralFilm

196 | 27

90.76 МБ




Вы не можете начинать темы
Вы не можете отвечать на сообщения
Вы не можете редактировать свои сообщения
Вы не можете удалять свои сообщения
Вы не можете добавлять вложения

Перейти:  
Для Мосгорсуда, Роскомнадзора и рекламодателей: mosgorsud-torrent[собачка]yandex.ru
 Вход
ppkBB3cker v.2 © 2008-2014 @ PPK
[ Time : 0.022s | 15 Queries | GZIP : Off ]

Торрент трекер RUTOR.IN, Не можете зайти на rutor.org? Какой новый адрес рутор? Какое зеркало рутор? Не работает rutor.org и зеркала? Тогда наш торрент специально для вас. Rutor.in неофициальное зеркало rutor. В случае если у Вас заблокирован rutor или вдруг Вы не можете на него зайти, то Вы без труда сможете скачать бесплатно и без рекламы последние новинки кино, игр, сериалов и прочего у нас, на Rutor.in. Не нужно использовать прокси, чтобы зайти на рутор, достаточно воспользоваться нашим ресурсом. Все новые фильмы, игры, сериалы, книги и музыка за 2013 и 2014 годы через торрент бесплатно. Скачивайте фильмы в хорошем качестве, игры для пк, xbox, playstation без регистрации. У нас вы найдете новые Зарубежные сериалы и Русские сериалы 2013, 2014, 2015 годов. Оставайтесь с нами, качайте любимые фильмы, игры, сериалы, книги и музыку.