img image001 image001 image001 image001 image001 image001 image001 image001 image001 image001 image001 image001 image001 image001 image001

Planets Sun Sun Sun
Статистика раздачи
Автор: Nickolas3434 | Размер: 11.82 ГБ | Добавлен: 16 окт 2016
Раздают: 8    Качают: 0
Скачать торрент
Скачать торрент
Описание торрента

СообщениеДобавлено: 16 окт 2016 

Производство: СССР
Жанр: Детский, Рисованая анимация
Режиссер: Михаил Цехановский, Иван Иванов-Вано, Александра Снежко-Блоцкая, Инесса Ковалевская, Иван Иванов-Вано - Лев Мильчин
Описание:
Мультипликационные фильмы по сказкам А. С. Пушкина
Продолжительность: 02:41:52
Список мультфильмов:
1. Сказка о рыбаке и рыбке, 1950г. (00:30:11)
2. Сказка о мертвой царевне и о семи богатырях, 1951 г. (00:29:58)
3. Сказка о золотом петушке, 1967 г. (00:29:57)
4. Сказка о попе и о работнике его Балде, 1973 г. (00:18:40 мин)
5. Сказка о царе Салтане, 1984 г. (00:53:05 мин)
Релиз от: NNMClub
Качество видео: BDRip (batonchik)
Видео: MPEG-4 AVC/H.264, 10000 kbps, 1080p, 25 fps, High@L4.1
Аудио: Russian, Dolby Digital Audio, 5.1, 48 kHz, 448 kbps,
Общее
Полное имя : Сказки А. С. Пушкина.1950-1984.BDRip.1080p.NNMClubСказка о золотом петушке.1967.BDRip.1080p.NNMCLub.mkv
Формат : Matroska
Версия формата : Version 2
Размер файла : 2,19 Гбайт
Продолжительность : 29 м. 57 с.
Общий поток : 10,5 Мбит/сек
Название фильма : Сказка о золотом петушке.1967.BDRip.1080p.NNMCLub
Дата кодирования : UTC 2016-10-12 10:14:59
Программа кодирования : mkvmerge v7.7.0 ('Six Voices') 64bit built on Feb 28 2015 23:39:33
Библиотека кодирования : libebml v1.3.1 + libmatroska v1.4.2
Видео
Идентификатор : 1
Формат : AVC
Формат/Информация : Advanced Video Codec
Профиль формата : High@L4.1
Параметр CABAC формата : Да
Параметр ReFrames формата : 5 кадров
Идентификатор кодека : V_MPEG4/ISO/AVC
Продолжительность : 29 м. 57 с.
Битрейт : 10000 Кбит/сек
Ширина : 1464 пикселя
Высота : 1080 пикселей
Соотношение сторон : 4:3
Режим частоты кадров : Постоянный
Частота кадров : 25,000 кадров/сек
Цветовое пространство : YUV
Субдискретизация насыщенности : 4:2:0
Битовая глубина : 8 бит
Тип развёртки : Прогрессивная
Бит/(Пиксели*Кадры) : 0.253
Размер потока : 2,05 Гбайт (94%)
Заголовок : Сказка о золотом петушке.1967.BDRip.1080p.NNMCLub
Библиотека кодирования : x264 core 148 r2638 7599210
Настройки программы : cabac=1 / ref=5 / deblock=1:0:0 / analyse=0x3:0x133 / me=umh / subme=10 / psy=1 / psy_rd=1.00:0.25 / mixed_ref=1 / me_range=24 / chroma_me=1 / trellis=2 / 8x8dct=1 / cqm=0 / deadzone=6,6 / fast_pskip=0 / chroma_qp_offset=-4 / threads=12 / lookahead_threads=2 / sliced_threads=0 / nr=0 / decimate=0 / interlaced=0 / bluray_compat=0 / constrained_intra=0 / bframes=7 / b_pyramid=2 / b_adapt=2 / b_bias=0 / direct=3 / weightb=1 / open_gop=0 / weightp=2 / keyint=250 / keyint_min=23 / scenecut=40 / intra_refresh=0 / rc_lookahead=40 / rc=2pass / mbtree=1 / bitrate=10000 / ratetol=1.0 / qcomp=0.80 / qpmin=0 / qpmax=69 / qpstep=4 / cplxblur=20.0 / qblur=0.5 / vbv_maxrate=50000 / vbv_bufsize=62500 / nal_hrd=none / filler=0 / ip_ratio=1.10 / aq=1:1.00
Язык : Russian
Default : Да
Forced : Нет
Цветовой диапазон : Limited
Коэффициенты матрицы : BT.709
Аудио
Идентификатор : 2
Формат : AC-3
Формат/Информация : Audio Coding 3
Расширение режима : CM (complete main)
Параметр Endianness формата : Big
Идентификатор кодека : A_AC3
Продолжительность : 29 м. 57 с.
Вид битрейта : Постоянный
Битрейт : 448 Кбит/сек
Каналы : 6 каналов
Расположение каналов : Front: L C R, Side: L R, LFE
Частота : 48,0 КГц
Частота кадров : 31,250 кадров/сек (1536 spf)
Метод сжатия : С потерями
Размер потока : 96,0 Мбайт (4%)
Язык : Russian
Default : Да
Forced : Нет



   Похожие торренты   Торрент   Размер 
В этой теме нет новых непрочитанных сообщений. Шедевры отечественной мультипликации. Сказки А. С. Пушкина (1950-1984) BDRip

56 | 2

2.18 ГБ

В этой теме нет новых непрочитанных сообщений. Шедевры отечественной мультипликации. Сказки А. С. Пушкина (1950-1984) BDRip 720p

6 | 0

6.13 ГБ

В этой теме нет новых непрочитанных сообщений. Шедевры отечественной мультипликации. Сказки А. С. Пушкина (1950-1984) HDRip-AVC

17 | 1

2.77 ГБ

В этой теме нет новых непрочитанных сообщений. Шедевры отечественной мультипликации. Сказки А. С. Пушкина (1950-1984) Blu-ray RUS 1080i от HDClub

20 | 6

22.41 ГБ

В этой теме нет новых непрочитанных сообщений. Шедевры отечественной мультипликации. Русские народные сказки (1949-1978) BDRip

165 | 7

2.17 ГБ

В этой теме нет новых непрочитанных сообщений. Шедевры отечественной мультипликации. Сказки зарубежных писателей. Выпуск 1 (1955-1976) BDRip

85 | 10

2.17 ГБ

В этой теме нет новых непрочитанных сообщений. Шедевры отечественной мультипликации. Русские народные сказки (1949-1979) Blu-Ray 1080i

30 | 2

20.77 ГБ




Вы не можете начинать темы
Вы не можете отвечать на сообщения
Вы не можете редактировать свои сообщения
Вы не можете удалять свои сообщения
Вы не можете добавлять вложения

Перейти:  
Для Мосгорсуда, Роскомнадзора и рекламодателей: mosgorsud-torrent[собачка]yandex.ru
 Вход
ppkBB3cker v.2 © 2008-2014 @ PPK
[ Time : 0.049s | 17 Queries | GZIP : Off ]

cron