img image001 image001 image001 image001 image001 image001 image001 image001 image001 image001 image001 image001 image001 image001 image001

Planets Sun Sun Sun
Статистика раздачи
Автор: Nickolas3434 | Размер: 1.37 ГБ | Добавлен: 16 окт 2016
Раздают: 812    Качают: 54
Скачать торрент
Скачать торрент
Описание торрента

СообщениеДобавлено: 16 окт 2016 


Информация о фильме
Название: Принцесса Лебедь: Пират или принцесса?
Оригинальное название: The Swan Princess: Princess Tomorrow, Pirate Today!
Год выхода: 2016
Жанр: Мультфильм, семейный
Режиссер: Ричард Рич
В ролях: Лора Бэйли, Максин Блу, Grant Durazzo, Келлен Гофф, Jayden Isabel, Гарднер Джаэс, Клэйтон Джеймс, Катрин Лавин
О фильме:
Когда родители уезжают на лето, юная любительница приключений принцесса Алиса остается под присмотром королевы Уберты, которая пытается воспитывать ее в лучших монарших традициях. Но принцесса скучает и мечтает сдать удалым пиратом. Вместе с лордом Роджерсом, лягушонком Джин-Бобом и черепашкой Спедом она отправляется в полное удивительных приключений, опасностей и открытий путешествие к дальним морям. После кораблекрушения, которое выносит отважных моряков на берег таинственного дикого острова, они встречают Лукаса – мальчика, живущего затворником. Теперь друзья должны вместе придумать, как спастись с острова, кишащего свирепыми голодными чудовищами.

Страна: США
Студия: Nest Family Entertainment
Продолжительность: 01:18:56
Перевод: Профессиональный (многоголосый, закадровый)[iTunes]
Файл
Качество: WEB-DLRip
Формат: AVI
Кодек: XviD
Видео: 720x400 (16:9), 23,976 fps, XviD ~2086 kbps avg, 0.302 bit/pixel
Аудио: AC3, 48 kHz, 2 ch, ~384.00 kbps avg | русский | Профессиональный (многоголосый, закадровый)[iTunes]
Субтитры: Отсутствуют
Семпл
Общее
Полное имя : D:The.Swan.Princess.2O16.P.WEB-DLRip.14OOMB.avi
Формат : AVI
Формат/Информация : Audio Video Interleave
Размер файла : 1,37 Гбайт
Продолжительность : 1 ч. 18 м.
Общий поток : 2479 Кбит/сек
Программа кодирования : VirtualDubMod 1.5.10.2 (build 2540/release)
Библиотека кодирования : VirtualDubMod build 2540/release
Видео
Идентификатор : 0
Формат : MPEG-4 Visual
Профиль формата : Advanced Simple@L5
Параметр BVOP формата : 2
Параметр QPel формата : Нет
Параметр GMC формата : Без точки перехода
Параметр матрицы формата : Default (MPEG)
Идентификатор кодека : XVID
Идентификатор кодека/Подсказка : XviD
Продолжительность : 1 ч. 18 м.
Битрейт : 2086 Кбит/сек
Ширина : 720 пикселей
Высота : 400 пикселей
Соотношение сторон : 16:9
Частота кадров : 23,976 кадра/сек
Цветовое пространство : YUV
Субдискретизация насыщенности : 4:2:0
Битовая глубина : 8 бит
Тип развёртки : Прогрессивная
Метод сжатия : С потерями
Бит/(Пиксели*Кадры) : 0.302
Размер потока : 1,15 Гбайт (84%)
Библиотека кодирования : XviD 1.2.1 (UTC 2008-12-04)
Аудио
Идентификатор : 1
Формат : AC-3
Формат/Информация : Audio Coding 3
Расширение режима : CM (complete main)
Параметр Endianness формата : Big
Идентификатор кодека : 2000
Продолжительность : 1 ч. 18 м.
Вид битрейта : Постоянный
Битрейт : 384 Кбит/сек
Каналы : 2 канала
Расположение каналов : Front: L R
Частота : 48,0 КГц
Метод сжатия : С потерями
Размер потока : 217 Мбайт (15%)
Выравнивание : Разделение по промежуткам
Продолжительность промежутка : 42 мс. (1,00 видеокадр)
Время предзагрузки промежутка : 500 мс.



   Похожие торренты   Торрент   Размер 
В этой теме нет новых непрочитанных сообщений. Принцесса Лебедь: Пират или принцесса? / The Swan Princess: Princess Tomorrow, Pirate Today! (2016) WEB-DLRip от MegaPeer | iTunes

160 | 32

744.58 МБ

В этой теме нет новых непрочитанных сообщений. Принцесса Лебедь: Пират или принцесса? / The Swan Princess: Princess Tomorrow, Pirate Today! (2016) WEB-DL 720p | iTunes

395 | 87

2.51 ГБ

В этой теме нет новых непрочитанных сообщений. Принцесса-лебедь / The Swan Princess (1994) DVDRip

78 | 11

693.89 МБ

В этой теме нет новых непрочитанных сообщений. Принцесса-лебедь / The Swan princess (1994) DVDRip-AVC от Torrent-Xzona

604 | 25

1.43 ГБ

В этой теме нет новых непрочитанных сообщений. Принцесса-лебедь: Рождество / The Swan Princess Christmas (2012) DVDRip от Youtracker | P

53 | 9

1.46 ГБ

В этой теме нет новых непрочитанных сообщений. Принцесса-лебедь: Рождество / The Swan Princess Christmas (2012) DVDRip от Youtracker | P

2 | 6

744.49 МБ

В этой теме нет новых непрочитанных сообщений. Принцесса-лебедь: Рождество / The Swan Princess Christmas (2012) DVDRip-AVC от Youtracker | P

17 | 2

1.46 ГБ




Вы не можете начинать темы
Вы не можете отвечать на сообщения
Вы не можете редактировать свои сообщения
Вы не можете удалять свои сообщения
Вы не можете добавлять вложения

Перейти:  
Для Мосгорсуда, Роскомнадзора и рекламодателей: mosgorsud-torrent[собачка]yandex.ru
 Вход
ppkBB3cker v.2 © 2008-2014 @ PPK
[ Time : 0.581s | 15 Queries | GZIP : On ]

Торрент трекер RUTOR.IN, Не можете зайти на rutor.org? Какой новый адрес рутор? Какое зеркало рутор? Не работает rutor.org и зеркала? Тогда наш торрент специально для вас. Rutor.in неофициальное зеркало rutor. В случае если у Вас заблокирован rutor или вдруг Вы не можете на него зайти, то Вы без труда сможете скачать бесплатно и без рекламы последние новинки кино, игр, сериалов и прочего у нас, на Rutor.in. Не нужно использовать прокси, чтобы зайти на рутор, достаточно воспользоваться нашим ресурсом. Все новые фильмы, игры, сериалы, книги и музыка за 2013 и 2014 годы через торрент бесплатно. Скачивайте фильмы в хорошем качестве, игры для пк, xbox, playstation без регистрации. У нас вы найдете новые Зарубежные сериалы и Русские сериалы 2013, 2014, 2015 годов. Оставайтесь с нами, качайте любимые фильмы, игры, сериалы, книги и музыку.