img image001 image001 image001 image001 image001 image001 image001 image001 image001 image001 image001 image001 image001 image001 image001

Planets Sun Sun Sun
Статистика раздачи
Автор: Nickolas3434 | Размер: 6.13 ГБ | Добавлен: 16 окт 2016
Раздают: 17    Качают: 0
Скачать торрент
Скачать торрент
Описание торрента

СообщениеДобавлено: 16 окт 2016 

Производство: СССР
Жанр: Детский, Рисованая анимация
Режиссер: Михаил Цехановский, Иван Иванов-Вано, Александра Снежко-Блоцкая, Инесса Ковалевская, Иван Иванов-Вано - Лев Мильчин
Описание:
Мультипликационные фильмы по сказкам А. С. Пушкина
Продолжительность: 02:41:52
Список мультфильмов:
1. Сказка о рыбаке и рыбке, 1950г. (00:30:11)
2. Сказка о мертвой царевне и о семи богатырях, 1951 г. (00:29:58)
3. Сказка о золотом петушке, 1967 г. (00:29:57)
4. Сказка о попе и о работнике его Балде, 1973 г. (00:18:40 мин)
5. Сказка о царе Салтане, 1984 г. (00:53:05 мин)
Релиз от: NNMClub
Качество видео: BDRip 720p
Видео: AVC/H.264 (Base@L4.1), ~976x720 (4:3), ~5000 Кбит/сек
Аудио #1: AC3, 6 каналов, 448 Кбит/сек - русский
General
Unique ID : 245205489548988935039002041296988043637 (0xB878DC073661B1699CDDC0DB54767975)
Complete name : C:DGIСказки А.С.Пушкина (1950-1984).720p.BDRip.NNMclub1. Сказка о рыбаке и рыбке.1950.720p.BDRip.AC3.h264.NNMclub.mkv
Format : Matroska
Format version : Version 2
File size : 1.06 GiB
Duration : 30mn 11s
Overall bit rate : 5 013 Kbps
Encoded date : UTC 2016-10-11 18:07:32
Writing application : mkvmerge v9.4.2 ('So High') 32bit
Writing library : libebml v1.3.4 + libmatroska v1.4.5
Video
ID : 1
Format : AVC
Format/Info : Advanced Video Codec
Format profile : High@L4.1
Format settings, CABAC : Yes
Format settings, ReFrames : 11 frames
Codec ID : V_MPEG4/ISO/AVC
Duration : 30mn 11s
Bit rate : 4 563 Kbps
Width : 976 pixels
Height : 720 pixels
Display aspect ratio : 4:3
Frame rate mode : Constant
Frame rate : 25.000 fps
Color space : YUV
Chroma subsampling : 4:2:0
Bit depth : 8 bits
Scan type : Progressive
Bits/(Pixel*Frame) : 0.260
Stream size : 985 MiB (91%)
Writing library : x264 core 148 r2721+55 e19946b t_mod_Custom [8-bit@all X86_64]
Encoding settings : cabac=1 / ref=11 / deblock=1:0:0 / analyse=0x3:0x133 / me=umh / subme=11 / psy=1 / fade_compensate=0.00 / psy_rd=0.60:0.00 / mixed_ref=1 / me_range=48 / chroma_me=1 / trellis=2 / 8x8dct=1 / cqm=0 / deadzone=21,11 / fast_pskip=0 / chroma_qp_offset=-2 / threads=18 / lookahead_threads=4 / sliced_threads=0 / nr=0 / decimate=0 / interlaced=0 / bluray_compat=0 / constrained_intra=0 / fgo=0 / bframes=12 / b_pyramid=2 / b_adapt=2 / b_bias=0 / direct=1 / weightb=1 / open_gop=1 / weightp=2 / keyint=250 / keyint_min=23 / scenecut=40 / intra_refresh=0 / rc_lookahead=64 / rc=crf / mbtree=0 / crf=20.0000 / qcomp=0.65 / qpmin=0:0:0 / qpmax=69:69:69 / qpstep=4 / vbv_maxrate=31500 / vbv_bufsize=35000 / crf_max=0.0 / nal_hrd=none / filler=0 / ip_ratio=1.40 / pb_ratio=1.30 / aq=3:0.70 / aq-sensitivity=10.00 / aq-factor=1.00:1.00:1.00 / aq2=1:0.60 / aq2-sensitivity=15.00 / aq2-factor=1.00:1.00:1.00 / aq3=4:[0.55:0.55]:[0.55:0.55]:[0.55:0.55]:[0.55:0.55] / aq3-sensitivity=10.00 / aq3-factor=[1.00:1.00]:[1.00:1.00]:[1.00:1.00] / aq3-boundary=192:64:24
Default : Yes
Forced : No
Color range : Limited
Color primaries : BT.709
Transfer characteristics : BT.709
Matrix coefficients : BT.709
Audio
ID : 2
Format : AC-3
Format/Info : Audio Coding 3
Mode extension : CM (complete main)
Format settings, Endianness : Big
Codec ID : A_AC3
Duration : 30mn 11s
Bit rate mode : Constant
Bit rate : 448 Kbps
Channel(s) : 6 channels
Channel positions : Front: L C R, Side: L R, LFE
Sampling rate : 48.0 KHz
Frame rate : 31.250 fps (1536 spf)
Compression mode : Lossy
Stream size : 96.7 MiB (9%)
Language : Russian
Default : Yes
Forced : No



   Похожие торренты   Торрент   Размер 
В этой теме нет новых непрочитанных сообщений. Шедевры отечественной мультипликации. Сказки А. С. Пушкина (1950-1984) BDRip

56 | 2

2.18 ГБ

В этой теме нет новых непрочитанных сообщений. Шедевры отечественной мультипликации. Сказки А. С. Пушкина (1950-1984) BDRip 1080p

13 | 0

11.82 ГБ

В этой теме нет новых непрочитанных сообщений. Шедевры отечественной мультипликации. Сказки А. С. Пушкина (1950-1984) HDRip-AVC

9 | 4

2.77 ГБ

В этой теме нет новых непрочитанных сообщений. Шедевры отечественной мультипликации. Сказки А. С. Пушкина (1950-1984) Blu-ray RUS 1080i от HDClub

20 | 6

22.41 ГБ

В этой теме нет новых непрочитанных сообщений. Шедевры отечественной мультипликации. Русские народные сказки (1949-1978) BDRip

176 | 13

2.17 ГБ

В этой теме нет новых непрочитанных сообщений. Шедевры отечественной мультипликации. Русские народные сказки (1949-1979) Blu-Ray 1080i

25 | 1

20.77 ГБ

В этой теме нет новых непрочитанных сообщений. Сказки А. С. Пушкина (1950-1984) BDRip от HQCLUB

14 | 0

2.87 ГБ




Вы не можете начинать темы
Вы не можете отвечать на сообщения
Вы не можете редактировать свои сообщения
Вы не можете удалять свои сообщения
Вы не можете добавлять вложения

Перейти:  
Для Мосгорсуда, Роскомнадзора и рекламодателей: mosgorsud-torrent[собачка]yandex.ru
 Вход
ppkBB3cker v.2 © 2008-2014 @ PPK
[ Time : 0.020s | 16 Queries | GZIP : Off ]

Торрент трекер RUTOR.IN, Не можете зайти на rutor.org? Какой новый адрес рутор? Какое зеркало рутор? Не работает rutor.org и зеркала? Тогда наш торрент специально для вас. Rutor.in неофициальное зеркало rutor. В случае если у Вас заблокирован rutor или вдруг Вы не можете на него зайти, то Вы без труда сможете скачать бесплатно и без рекламы последние новинки кино, игр, сериалов и прочего у нас, на Rutor.in. Не нужно использовать прокси, чтобы зайти на рутор, достаточно воспользоваться нашим ресурсом. Все новые фильмы, игры, сериалы, книги и музыка за 2013 и 2014 годы через торрент бесплатно. Скачивайте фильмы в хорошем качестве, игры для пк, xbox, playstation без регистрации. У нас вы найдете новые Зарубежные сериалы и Русские сериалы 2013, 2014, 2015 годов. Оставайтесь с нами, качайте любимые фильмы, игры, сериалы, книги и музыку.
cron