img image001 image001 image001 image001 image001 image001 image001 image001 image001 image001 image001 image001 image001 image001 image001

Planets Sun Sun Sun
Статистика раздачи
Автор: Nickolas3434 | Размер: 2.77 ГБ | Добавлен: 18 окт 2016
Раздают: 27    Качают: 0
Скачать торрент
Скачать торрент
Описание торрента

СообщениеДобавлено: 18 окт 2016 

Производство: СССР
Жанр: Детский, Рисованая анимация
Режиссер: Михаил Цехановский, Иван Иванов-Вано, Александра Снежко-Блоцкая, Инесса Ковалевская, Иван Иванов-Вано - Лев Мильчин
Описание:
Мультипликационные фильмы по сказкам А. С. Пушкина
Продолжительность: 02:41:52
Список мультфильмов:
1. Сказка о рыбаке и рыбке, 1950г. (00:30:11)
2. Сказка о мертвой царевне и о семи богатырях, 1951 г. (00:29:58)
3. Сказка о золотом петушке, 1967 г. (00:29:57)
4. Сказка о попе и о работнике его Балде, 1973 г. (00:18:40 мин)
5. Сказка о царе Салтане, 1984 г. (00:53:05 мин)
Качество видео: HDRip-AVC
Видео: High@L4.1, ~760x576 (4:3), ~2000 Кбит/сек
Аудио: AC3, 6 каналов, 448 Кбит/сек - русский
General
Unique ID : 90974599013355733355584115255533308672 (0x447112087A09A9A3CA62C7D044BF0B00)
Complete name : F:FILMSСказки А. С. Пушкина.1950-1984.HDRIP_AVCСказка о попе и о работнике его Балде..(1973).HDRIP_AVC.[-=DoMiNo=-].mkv
Format : Matroska
Format version : Version 4 / Version 2
File size : 328 MiB
Duration : 18 min 40 s
Overall bit rate : 2 453 kb/s
Movie name : Сказка о попе и о работнике его Балде
Deion : Музыкальное представление по мотивам сказки Пушкина.
Writing application : XviD4PSP 7.0.304 DAILY
Writing library : Lavf57.41.100 / Lavf57.41.100
Cover : Yes
Attachments : cover.jpg
ACTORS : Олег Анофриев, показать всех
COUNTRY : СССР
DATE : 1973
DIRECTOR : Инесса Ковалевская
ENCODING_INFO : MATROSKA,WEBM > MKV Произвольный / H264 > X264 VBR-2P 2000kbps Произвольный / AC3 > COPY
GENRE : мультфильм, короткометражка
HD_VIDEO : 1
IMDB_RATING : 6.70
ITUNEXTC : ru-movie|12+|200|
MEDIA_TYPE : 9
RATING : 7.367
SYNOPSIS : Музыкальное представление по мотивам сказки Пушкина.
WRITER : Инесса Ковалевская, Ирина Крякова, Александр Пушкин
Video
ID : 1
Format : AVC
Format/Info : Advanced Video Codec
Format profile : High@L4.1
Format settings, CABAC : Yes
Format settings, ReFrames : 12 frames
Codec ID : V_MPEG4/ISO/AVC
Duration : 18 min 40 s
Bit rate : 2 000 kb/s
Width : 760 pixels
Height : 576 pixels
Display aspect ratio : 4:3
Frame rate mode : Constant
Frame rate : 25.000 FPS
Color space : YUV
Chroma subsampling : 4:2:0
Bit depth : 8 bits
Scan type : Progressive
Bits/(Pixel*Frame) : 0.183
Stream size : 261 MiB (80%)
Writing library : x264 core 148 r2721M 72d53ab
Encoding settings : cabac=1 / ref=12 / deblock=1:-3:-3 / analyse=0x3:0x133 / me=umh / subme=11 / psy=1 / psy_rd=1.00:0.10 / mixed_ref=1 / me_range=32 / chroma_me=1 / trellis=2 / 8x8dct=1 / cqm=0 / deadzone=21,11 / fast_pskip=0 / chroma_qp_offset=-3 / threads=5 / lookahead_threads=1 / sliced_threads=0 / nr=0 / decimate=1 / interlaced=0 / bluray_compat=0 / constrained_intra=0 / bframes=11 / b_pyramid=2 / b_adapt=2 / b_bias=0 / direct=3 / weightb=1 / open_gop=0 / weightp=2 / keyint=250 / keyint_min=25 / scenecut=40 / intra_refresh=0 / rc_lookahead=60 / rc=2pass / mbtree=1 / bitrate=2000 / ratetol=1.0 / qcomp=0.70 / qpmin=0 / qpmax=69 / qpstep=4 / cplxblur=20.0 / qblur=0.5 / ip_ratio=1.40 / aq=1:1.00
Language : Russian
Default : Yes
Forced : No
Color range : Limited
Matrix coefficients : BT.709
DURATION : 00:18:40.480000000
Audio
ID : 2
Format : AC-3
Format/Info : Audio Coding 3
Mode extension : CM (complete main)
Format settings, Endianness : Big
Codec ID : A_AC3
Duration : 18 min 40 s
Bit rate mode : Constant
Bit rate : 448 kb/s
Channel(s) : 6 channels
Channel positions : Front: L C R, Side: L R, LFE
Sampling rate : 48.0 kHz
Frame rate : 31.250 FPS (1536 spf)
Bit depth : 32 bits
Compression mode : Lossy
Stream size : 59.8 MiB (18%)
Language : Russian
Default : Yes
Forced : No
DURATION : 00:18:40.512000000
Menu
00:00:00.000 : :Глава 1
00:01:20.817 : :Глава 2
00:02:50.371 : :Глава 3
00:04:33.031 : :Глава 4
00:05:56.032 : :Глава 5
00:07:32.139 : :Глава 6
00:09:08.246 : :Глава 7
00:11:21.485 : :Глава 8
00:12:59.920 : :Глава 9
00:14:33.699 : :Глава 10
00:16:07.622 : :Глава 11
00:17:24.071 : :Глава 12



   Похожие торренты   Торрент   Размер 
В этой теме нет новых непрочитанных сообщений. Шедевры отечественной мультипликации. Сказки А. С. Пушкина (1950-1984) BDRip

56 | 2

2.18 ГБ

В этой теме нет новых непрочитанных сообщений. Шедевры отечественной мультипликации. Сказки А. С. Пушкина (1950-1984) Blu-ray RUS 1080i от HDClub

20 | 6

22.41 ГБ

В этой теме нет новых непрочитанных сообщений. Шедевры отечественной мультипликации. Сказки А. С. Пушкина (1950-1984) BDRip 720p

7 | 6

6.13 ГБ

В этой теме нет новых непрочитанных сообщений. Шедевры отечественной мультипликации. Сказки А. С. Пушкина (1950-1984) BDRip 1080p

45 | 18

11.82 ГБ

В этой теме нет новых непрочитанных сообщений. Шедевры отечественной мультипликации. Русские народные сказки (1949-1979) Blu-Ray 1080i

22 | 1

20.77 ГБ

В этой теме нет новых непрочитанных сообщений. Шедевры отечественной мультипликации. Русские народные сказки (1949-1978) BDRip

156 | 11

2.17 ГБ

В этой теме нет новых непрочитанных сообщений. Сказки А. С. Пушкина (1950-1984) BDRip от HQCLUB

9 | 0

2.87 ГБ




Вы не можете начинать темы
Вы не можете отвечать на сообщения
Вы не можете редактировать свои сообщения
Вы не можете удалять свои сообщения
Вы не можете добавлять вложения

Перейти:  
Для Мосгорсуда, Роскомнадзора и рекламодателей: mosgorsud-torrent[собачка]yandex.ru
 Вход
ppkBB3cker v.2 © 2008-2014 @ PPK
[ Time : 0.081s | 14 Queries | GZIP : Off ]
CGP output time : 0.056s | 5 Queries | GZIP : Off

Торрент трекер RUTOR.IN, Не можете зайти на rutor.org? Какой новый адрес рутор? Какое зеркало рутор? Не работает rutor.org и зеркала? Тогда наш торрент специально для вас. Rutor.in неофициальное зеркало rutor. В случае если у Вас заблокирован rutor или вдруг Вы не можете на него зайти, то Вы без труда сможете скачать бесплатно и без рекламы последние новинки кино, игр, сериалов и прочего у нас, на Rutor.in. Не нужно использовать прокси, чтобы зайти на рутор, достаточно воспользоваться нашим ресурсом. Все новые фильмы, игры, сериалы, книги и музыка за 2013 и 2014 годы через торрент бесплатно. Скачивайте фильмы в хорошем качестве, игры для пк, xbox, playstation без регистрации. У нас вы найдете новые Зарубежные сериалы и Русские сериалы 2013, 2014, 2015 годов. Оставайтесь с нами, качайте любимые фильмы, игры, сериалы, книги и музыку.