img image001 image001 image001 image001 image001 image001 image001 image001 image001 image001 image001 image001 image001 image001 image001

Planets Sun Sun Sun
Статистика раздачи
Автор: PriZraK | Размер: 1.96 ГБ | Добавлен: 22 окт 2016
Раздают: 72    Качают: 8
Скачать торрент
Скачать торрент
Описание торрента

СообщениеДобавлено: 22 окт 2016 

Информация о фильме
Название: Солнечные зайчики
Альтернативное название: Малыши прыгуши
Оригинальное название: Sunny Bunnies
Год выхода: 2015
Страна: Беларусь, Digital Light Studio
Жанр: Мультсериал, детский, комедия, приключения
Продолжительность: 26 х ~ 00:03:40
Перевод: не требуется
Режиссер: Андрей Леденев
Роли озвучивали: Светлана Тимохина, Дмитрий Давидович
О фильме: Ребята, вы еще не знакомы с озорными солнечными зайчиками? Конечно же, кто их не видел? А вот близко вряд ли кто знаком. И мы рады вам их представить. Знакомьтесь – Турбо, близняшки Светик и Ириска, сластена Большой Бу и самый младшенький Кузя. Все они очень веселые и забавные, каждый солнечный зайчик имеет свой цвет. Ириска – синяя, Светик – голубая, Большой Бу – лиловый, Кузя – зеленый, а Турбо – оранжевый. Солнечные зайчики обожают путешествовать. Живут они на Солнце, но как только появляется возможность, они с радостью мчат на Землю, чтобы понежиться на зеленой травке и поплескаться в водичке.
01. Карусель
02. Волшебная палочка
03. Концерт
04. Кто быстрее_
05. Зайчики на Луне
06. Волшебный чемоданчик
07. Светлячки
08. Легкая атлетика
09. Прятки
10. День рождения
11. Кто там_
12. Поймай меня
13. Пойдем кататься!
14. Новый год
15. Рыцарский турнир
16. Заветные желания
17. Большой теннис
18. Мыльные пузыри
19. Цветомешалка
20. Чудо-кисточка
21. Выше всех
22. Жонглер
23. Селфи
24. Храбрый летчик
25. Фокус-покус
26. Сила волшебства



Доп. информация:
Семпл


Файл
Формат: MP4
Качество: WEB-DLRip 1080p
Видео: MPEG4-AVC, High@L4, 1920x1080 (16:9), ~ 3 932 Kbps, 25.000 fps
Звук: 44.1 KHz, AAC-LC 2.0, 192 Kbps
Субтитры: нет
07. Светлячки. Full-HD-merci-.mp4
Формат : MPEG-4
Профиль формата : Base Media
Идентификатор кодека : isom (isom/mp42)
Размер файла : 104 Мбайт
Продолжительность : 3 м. 31 с.
Режим общего битрейта : Переменный
Общий поток : 4131 Кбит/сек
Дата кодирования : UTC 2016-10-07 03:18:06
Дата пометки : UTC 2016-10-07 03:18:06
Программа кодирования : My MP4Box GUI 0.6.0.6
Видео
Идентификатор : 1
Формат : AVC
Формат/Информация : Advanced Video Codec
Профиль формата : High@L4
Параметр CABAC формата : Да
Параметр ReFrames формата : 2 кадра
Идентификатор кодека : avc1
Идентификатор кодека/Информация : Advanced Video Coding
Продолжительность : 3 м. 31 с.
Битрейт : 3932 Кбит/сек
Ширина : 1920 пикселей
Высота : 1080 пикселей
Соотношение сторон : 16:9
Режим частоты кадров : Постоянный
Частота кадров : 25,000 кадров/сек
Цветовое пространство : YUV
Субдискретизация насыщенности : 4:2:0
Битовая глубина : 8 бит
Тип развёртки : Прогрессивная
Бит/(Пиксели*Кадры) : 0.076
Размер потока : 99,1 Мбайт (95%)
Язык : English
Дата кодирования : UTC 2016-10-07 03:18:06
Дата пометки : UTC 2016-10-07 03:18:06
Цветовой диапазон : Limited
Основные цвета : BT.709
Характеристики трансфера : BT.709
Коэффициенты матрицы : BT.709
Аудио
Идентификатор : 2
Формат : AAC
Формат/Информация : Advanced Audio Codec
Профиль формата : LC
Идентификатор кодека : 40
Продолжительность : 3 м. 31 с.
Продолжительность оригинала : 3 м. 31 с.
Source_Duration_FirstFrame : -15 мс.
Вид битрейта : Переменный
Битрейт : 192 Кбит/сек
Каналы : 2 канала
Расположение каналов : Front: L R
Частота : 44,1 КГц
Частота кадров : 43,066 кадра/сек (1024 spf)
Метод сжатия : С потерями
Размер потока : 4,88 Мбайт (5%)
Размер потока оригинала : 4,88 Мбайт (5%)
Язык : English
Дата кодирования : UTC 2016-10-07 03:18:06
Дата пометки : UTC 2016-10-07 03:18:06
mdhd_Duration : 211496


Релиз от:
Автор релиза: /



   Похожие торренты   Торрент   Размер 
В этой теме нет новых непрочитанных сообщений. Солнечные зайчики [01-24 из ?] / Sunny Bunnies (2015) WEB-DLRip-AVC от ExKinoRay

109 | 12

1.55 ГБ

В этой теме нет новых непрочитанных сообщений. Солнечные зайчики [01-24 из ?] / Sunny Bunnies (2015) WEB-DLRip от ExKinoRay

28 | 6

1.33 ГБ

В этой теме нет новых непрочитанных сообщений. Солнечные зайчики [01-24 из ?] / Sunny Bunnies (2015) WEB-DLRip от ExKinoRay

26 | 2

1.33 ГБ

В этой теме нет новых непрочитанных сообщений. Солнечные зайчики / Sunny Bunnies [s01] (2015) WEB-DLRip 720p от ExKinoRay

39 | 0

1.13 ГБ

В этой теме нет новых непрочитанных сообщений. Солнечные / Sunny (2011) DVDRip | L2

13 | 3

1.84 ГБ

В этой теме нет новых непрочитанных сообщений. Джинглики [01-06] (2015) WEB-DLRip 1080p от ExKinoRay

21 | 4

1.55 ГБ

В этой теме нет новых непрочитанных сообщений. Киока / Kioka [01-11] (2015) WEB-DLRip 1080p от ExKinoRay | D

0 | 4

1.43 ГБ




Вы не можете начинать темы
Вы не можете отвечать на сообщения
Вы не можете редактировать свои сообщения
Вы не можете удалять свои сообщения
Вы не можете добавлять вложения

Перейти:  
Для Мосгорсуда, Роскомнадзора и рекламодателей: mosgorsud-torrent[собачка]yandex.ru
 Вход
ppkBB3cker v.2 © 2008-2014 @ PPK
[ Time : 0.056s | 15 Queries | GZIP : Off ]

Торрент трекер RUTOR.IN, Не можете зайти на rutor.org? Какой новый адрес рутор? Какое зеркало рутор? Не работает rutor.org и зеркала? Тогда наш торрент специально для вас. Rutor.in неофициальное зеркало rutor. В случае если у Вас заблокирован rutor или вдруг Вы не можете на него зайти, то Вы без труда сможете скачать бесплатно и без рекламы последние новинки кино, игр, сериалов и прочего у нас, на Rutor.in. Не нужно использовать прокси, чтобы зайти на рутор, достаточно воспользоваться нашим ресурсом. Все новые фильмы, игры, сериалы, книги и музыка за 2013 и 2014 годы через торрент бесплатно. Скачивайте фильмы в хорошем качестве, игры для пк, xbox, playstation без регистрации. У нас вы найдете новые Зарубежные сериалы и Русские сериалы 2013, 2014, 2015 годов. Оставайтесь с нами, качайте любимые фильмы, игры, сериалы, книги и музыку.